<?xml version="1.0" encoding="UTF-8" standalone="no"?> <svg xmlns:dc="http://purl.org/dc/elements/1.1/" xmlns:cc="http://creativecommons.org/ns#" xmlns:rdf="http://www.w3.org/1999/02/22-rdf-syntax-ns#" xmlns:svg="http://www.w3.org/2000/svg" xmlns="http://www.w3.org/2000/svg" xmlns:sodipodi="http://sodipodi.sourceforge.net/DTD/sodipodi-0.dtd" xmlns:inkscape="http://www.inkscape.org/namespaces/inkscape" viewBox="0 0 120 150" width="120" height="150" version="1.1" id="svg2948" sodipodi:docname="facebook.svg" inkscape:version="1.0.2-2 (e86c870879, 2021-01-15)"><metadata id="metadata2954"></metadata><defs id="defs2952"></defs><font id="font2938" vert-origin-x="512" vert-origin-y="768" vert-adv-y="1024"><glyph id="glyph2414"></glyph><glyph id="glyph2416"></glyph><glyph d="M430,1433l0,-572C430,831 430,802 429,773C428,744 426,716 424,687C422,658 420,628 417,598C414,567 410,535 406,500l-121,0C281,535 278,567 275,598C272,628 269,658 267,687C265,716 264,744 263,773C262,802 261,831 261,861l0,572M218,110C218,127 221,144 228,159C234,174 243,188 254,199C265,210 278,219 293,226C308,233 325,236 342,236C359,236 376,233 391,226C406,219 420,210 431,199C442,188 451,174 458,159C464,144 467,127 467,110C467,92 464,76 458,61C451,46 442,32 431,21C420,10 406,1 391,-5C376,-12 359,-15 342,-15C325,-15 308,-12 293,-5C278,1 265,10 254,21C243,32 234,46 228,61C221,76 218,92 218,110z" unicode="!" id="glyph2418"></glyph><glyph d="M307,1433l0,-290l-16,-155C289,967 283,950 274,939C265,927 250,921 229,921C212,921 198,927 189,939C179,950 172,967 168,988l-16,155l0,290M640,1433l0,-290l-16,-155C622,967 616,950 607,939C598,927 583,921 562,921C545,921 531,927 522,939C512,950 505,967 501,988l-16,155l0,290z" unicode="&quot;" id="glyph2420"></glyph><glyph d="M790,423l-84,-423l-81,0C610,0 597,6 586,17C575,28 570,43 570,61C570,64 570,66 571,69C571,71 571,74 572,77l71,346l-247,0l-71,-355C320,43 310,26 295,16C280,5 262,0 243,0l-79,0l85,423l-146,0C88,423 76,427 67,435C58,442 54,455 54,474C54,477 54,481 55,485C55,489 55,493 56,497l8,57l204,0l65,326l-232,0l13,74C117,973 125,988 137,997C149,1006 168,1011 194,1011l158,0l72,358C428,1389 437,1405 452,1416C466,1427 483,1433 503,1433l80,0l-84,-422l247,0l84,422l79,0C926,1433 940,1428 951,1418C962,1408 967,1395 967,1379C967,1374 967,1369 966,1366l-73,-355l212,0l-13,-75C1089,917 1081,903 1069,894C1056,885 1037,880 1012,880l-138,0l-65,-326l179,0C1004,554 1016,550 1025,543C1034,535 1038,521 1038,502C1038,499 1038,495 1038,492C1037,488 1037,484 1036,480l-9,-57M415,554l247,0l65,326l-247,0z" unicode="#" id="glyph2422"></glyph><glyph d="M498,-12C417,-5 344,15 278,48C211,80 154,121 106,171l53,82C164,260 170,266 179,271C188,276 197,278 206,278C219,278 233,272 249,259C265,246 285,232 308,216C331,199 359,183 392,168C424,153 463,142 508,137l37,531C498,682 453,698 408,716C363,733 322,756 287,785C251,813 222,849 201,892C179,935 168,988 168,1053C168,1102 178,1149 197,1196C216,1242 243,1283 280,1319C316,1355 361,1385 414,1408C467,1431 529,1443 598,1446l10,144C609,1603 614,1614 623,1624C632,1634 643,1639 658,1639l66,0l-14,-198C780,1432 840,1414 891,1387C942,1360 987,1327 1027,1288l-43,-66C971,1202 955,1192 938,1192C929,1192 917,1196 904,1205C890,1213 873,1223 854,1234C835,1245 812,1256 787,1267C762,1278 733,1285 700,1290l-33,-484C715,791 762,775 809,758C856,741 898,718 935,691C972,664 1003,630 1026,589C1049,548 1060,496 1060,435C1060,375 1050,319 1030,266C1010,213 981,167 943,127C904,87 857,55 802,30C746,5 682,-10 611,-14l-12,-176C598,-203 593,-214 584,-223C575,-233 563,-238 549,-238l-66,0M891,407C891,440 885,469 873,493C860,517 843,538 822,555C801,572 776,587 747,600C718,613 688,624 655,635l-34,-498C664,141 703,151 737,166C770,181 799,200 822,223C845,246 862,274 874,305C885,336 891,370 891,407M336,1071C336,1039 342,1011 353,988C364,964 380,943 400,925C420,907 443,891 470,878C497,865 526,853 557,842l30,451C544,1289 506,1280 475,1267C443,1254 417,1237 397,1217C376,1197 361,1175 351,1150C341,1125 336,1098 336,1071z" unicode="$" id="glyph2424"></glyph><glyph d="M707,1087C707,1031 698,981 681,937C664,892 641,855 612,825C583,794 549,771 510,755C471,739 431,731 389,731C344,731 302,739 264,755C225,771 192,794 163,825C134,855 112,892 96,937C80,981 72,1031 72,1087C72,1144 80,1195 96,1240C112,1285 134,1322 163,1353C192,1384 225,1407 264,1423C302,1439 344,1447 389,1447C434,1447 476,1439 515,1423C554,1407 587,1384 616,1353C644,1322 666,1285 683,1240C699,1195 707,1144 707,1087M568,1087C568,1131 563,1168 554,1199C545,1230 532,1255 516,1275C499,1294 480,1308 459,1317C437,1326 414,1330 389,1330C364,1330 341,1326 320,1317C298,1308 279,1294 263,1275C247,1255 235,1230 226,1199C217,1168 212,1131 212,1087C212,1044 217,1007 226,977C235,946 247,922 263,903C279,884 298,870 320,862C341,853 364,849 389,849C414,849 437,853 459,862C480,870 499,884 516,903C532,922 545,946 554,977C563,1007 568,1044 568,1087M1208,1397C1217,1408 1226,1417 1236,1424C1245,1430 1258,1433 1274,1433l128,0l-1047,-1404C348,20 340,13 331,8C322,3 311,0 298,0l-132,0M1499,338C1499,282 1490,232 1473,188C1456,144 1433,107 1404,77C1375,46 1341,23 1303,7C1264,-9 1224,-17 1182,-17C1137,-17 1095,-9 1057,7C1018,23 985,46 956,77C927,107 905,144 889,188C873,232 865,282 865,338C865,395 873,447 889,492C905,537 927,574 956,605C985,636 1018,659 1057,675C1095,691 1137,699 1182,699C1227,699 1268,691 1307,675C1346,659 1379,636 1408,605C1437,574 1459,537 1475,492C1491,447 1499,395 1499,338M1361,338C1361,382 1356,420 1347,451C1338,482 1325,507 1309,526C1292,545 1273,559 1252,568C1230,577 1207,581 1182,581C1157,581 1134,577 1113,568C1091,559 1072,545 1056,526C1040,507 1028,482 1019,451C1010,420 1005,382 1005,338C1005,295 1010,258 1019,228C1028,198 1040,174 1056,155C1072,136 1091,122 1113,114C1134,105 1157,101 1182,101C1207,101 1230,105 1252,114C1273,122 1292,136 1309,155C1325,174 1338,198 1347,228C1356,258 1361,295 1361,338z" unicode="%" id="glyph2426"></glyph><glyph d="M660,1449C713,1449 761,1441 804,1424C847,1407 885,1384 917,1356C948,1328 973,1296 992,1259C1010,1222 1020,1183 1023,1143l-111,-22C909,1120 906,1120 903,1120C894,1120 886,1122 879,1127C871,1132 865,1140 862,1152C857,1169 850,1187 840,1206C829,1225 816,1242 800,1257C783,1272 764,1285 741,1295C718,1305 691,1310 660,1310C627,1310 597,1305 570,1294C543,1283 521,1269 502,1250C483,1231 468,1208 458,1183C447,1157 442,1129 442,1099C442,1076 445,1053 451,1032C456,1011 465,989 476,968C487,946 502,924 520,901C538,878 560,853 585,828l412,-419C1022,454 1043,501 1058,550C1073,599 1083,648 1088,697C1089,710 1093,720 1100,727C1107,734 1116,738 1128,738l110,0C1237,661 1224,586 1201,512C1178,438 1144,369 1100,304l300,-304l-172,0C1209,0 1193,2 1181,7C1169,12 1156,21 1141,36l-144,145C934,120 862,72 781,37C699,2 609,-16 511,-16C458,-16 405,-7 354,11C303,29 257,55 217,90C176,124 144,166 119,215C94,264 82,320 82,382C82,429 90,473 106,515C121,556 143,595 171,630C198,665 231,697 269,725C307,753 349,777 394,797C353,848 323,898 304,947C285,996 275,1046 275,1098C275,1147 284,1192 302,1235C319,1278 345,1315 378,1347C411,1378 452,1403 500,1422C547,1440 601,1449 660,1449M263,396C263,353 271,315 287,282C303,249 324,221 350,198C376,175 406,158 439,147C472,135 506,129 541,129C616,129 683,143 742,170C801,197 854,234 899,279l-423,427C405,668 352,623 317,570C281,517 263,459 263,396z" unicode="&amp;" id="glyph2428"></glyph><glyph d="M307,1433l0,-290l-16,-155C289,967 283,950 274,939C265,927 250,921 229,921C212,921 198,927 189,939C179,950 172,967 168,988l-16,155l0,290z" unicode="'" id="glyph2430"></glyph><glyph d="M289,629C289,486 307,348 344,214C381,79 434,-49 503,-171C507,-178 510,-185 511,-190C512,-195 513,-201 513,-206C513,-215 511,-223 506,-229C501,-235 495,-240 488,-245l-79,-48C359,-216 317,-140 282,-65C247,10 218,86 197,162C175,238 159,315 149,392C139,469 134,548 134,629C134,710 139,789 149,866C159,943 175,1020 197,1096C218,1171 247,1247 282,1322C317,1397 359,1474 409,1551l79,-49C495,1497 501,1492 506,1486C511,1480 513,1472 513,1463C513,1453 510,1442 503,1429C433,1308 380,1180 344,1045C307,910 289,772 289,629z" unicode="(" id="glyph2432"></glyph><glyph d="M298,629C298,772 280,910 244,1045C207,1180 154,1308 84,1429C77,1442 74,1453 74,1463C74,1472 76,1480 81,1486C86,1492 92,1497 99,1502l79,49C228,1474 271,1397 306,1322C341,1247 369,1171 391,1096C412,1020 428,943 438,866C448,789 453,710 453,629C453,548 448,469 438,392C428,315 412,238 391,162C369,86 341,10 306,-65C271,-140 228,-216 178,-293l-79,48C92,-240 86,-235 81,-229C76,-223 74,-215 74,-206C74,-201 75,-195 76,-190C77,-185 80,-178 84,-171C153,-49 206,79 243,214C280,348 298,486 298,629z" unicode=")" id="glyph2434"></glyph><glyph d="M354,863l0,197C354,1073 355,1085 357,1096C358,1107 361,1118 366,1129C353,1112 335,1097 313,1084l-172,-99l-44,75l172,100C293,1174 317,1182 342,1184C329,1185 316,1188 305,1192C293,1195 281,1201 269,1209l-173,101l44,75l173,-100C336,1272 355,1254 370,1233C364,1245 360,1257 358,1270C355,1282 354,1295 354,1308l0,198l88,0l0,-197C442,1282 437,1258 428,1237C435,1247 444,1256 453,1263C462,1270 472,1278 483,1285l172,99l44,-75l-172,-100C516,1202 505,1196 494,1192C483,1188 471,1185 459,1184C471,1183 483,1180 494,1177C505,1173 516,1167 527,1160l173,-101l-44,-75l-173,100C471,1091 460,1099 451,1106C442,1113 433,1122 426,1133C437,1111 442,1087 442,1061l0,-198z" unicode="*" id="glyph2436"></glyph><glyph d="M651,1166l0,-427l407,0l0,-135l-407,0l0,-430l-146,0l0,430l-405,0l0,135l405,0l0,427z" unicode="+" id="glyph2438"></glyph><glyph d="M94,123C94,138 97,153 103,167C108,180 116,192 127,203C137,213 149,221 164,227C179,233 195,236 212,236C232,236 250,232 266,225C281,218 294,208 305,195C315,182 323,167 328,150C333,133 336,114 336,94C336,64 332,33 323,1C314,-32 302,-64 286,-95C270,-127 250,-158 227,-188C203,-218 176,-246 146,-271l-30,29C107,-234 103,-225 103,-214C103,-205 108,-196 117,-187C124,-180 132,-170 143,-157C153,-145 163,-131 174,-115C185,-99 195,-81 204,-62C213,-43 219,-22 223,0l-13,0C193,0 177,3 163,9C149,15 137,24 127,35C116,46 108,59 103,74C97,89 94,105 94,123z" unicode="," id="glyph2440"></glyph><glyph d="M100,675l494,0l0,-151l-494,0z" unicode="-" id="glyph2442"></glyph><glyph d="M88,110C88,127 91,144 98,159C104,174 113,188 124,199C135,210 148,219 163,226C178,233 195,236 212,236C229,236 246,233 261,226C276,219 290,210 301,199C312,188 321,174 328,159C334,144 337,127 337,110C337,92 334,76 328,61C321,46 312,32 301,21C290,10 276,1 261,-5C246,-12 229,-15 212,-15C195,-15 178,-12 163,-5C148,1 135,10 124,21C113,32 104,46 98,61C91,76 88,92 88,110z" unicode="." id="glyph2444"></glyph><glyph d="M161,-21C152,-44 138,-62 120,-73C101,-84 82,-90 63,-90l-75,0l601,1497C598,1428 610,1445 626,1456C642,1467 661,1473 683,1473l75,0z" unicode="/" id="glyph2446"></glyph><glyph d="M1100,716C1100,591 1087,482 1060,391C1033,299 996,223 949,163C902,103 847,58 784,29C720,0 652,-15 579,-15C506,-15 438,0 375,29C312,58 257,103 210,163C163,223 127,299 100,391C73,482 60,591 60,716C60,841 73,950 100,1042C127,1134 163,1210 210,1271C257,1331 312,1376 375,1405C438,1434 506,1449 579,1449C652,1449 720,1434 784,1405C847,1376 902,1331 949,1271C996,1210 1033,1134 1060,1042C1087,950 1100,841 1100,716M915,716C915,825 906,917 888,992C869,1066 845,1126 814,1171C783,1216 747,1249 706,1269C665,1288 623,1298 579,1298C535,1298 493,1288 452,1269C411,1249 376,1216 345,1171C314,1126 290,1066 272,992C253,917 244,825 244,716C244,607 253,515 272,441C290,367 314,307 345,262C376,217 411,184 452,165C493,145 535,135 579,135C623,135 665,145 706,165C747,184 783,217 814,262C845,307 869,367 888,441C906,515 915,607 915,716z" unicode="0" id="glyph2448"></glyph><glyph d="M287,136l308,0l0,977C595,1142 596,1172 598,1202l-256,-219C335,978 329,974 322,972C315,969 309,968 303,968C293,968 284,970 276,975C268,979 262,984 258,990l-56,77l426,369l145,0l0,-1300l282,0l0,-136l-768,0z" unicode="1" id="glyph2450"></glyph><glyph d="M601,1449C662,1449 718,1440 771,1422C824,1404 869,1378 908,1344C946,1309 976,1267 998,1218C1020,1169 1031,1113 1031,1050C1031,997 1023,947 1007,902C991,857 969,813 942,772C915,730 883,690 848,651C812,612 774,572 734,531l-377,-386C384,152 411,158 438,163C465,167 492,169 517,169l480,0C1016,169 1032,163 1043,152C1054,141 1060,126 1060,108l0,-108l-956,0l0,61C104,74 107,87 112,100C117,113 125,126 136,137l459,461C633,637 668,674 699,710C730,745 757,781 780,817C802,853 819,890 831,927C843,964 849,1003 849,1045C849,1087 842,1124 829,1156C816,1187 797,1213 774,1234C751,1255 723,1270 692,1281C661,1291 627,1296 591,1296C555,1296 522,1291 491,1280C460,1269 433,1255 410,1236C386,1217 366,1194 350,1168C333,1142 322,1113 315,1082C310,1063 302,1049 291,1040C280,1031 266,1027 249,1027C246,1027 242,1027 239,1028C235,1028 231,1028 226,1029l-93,16C142,1110 160,1168 187,1219C214,1269 248,1311 289,1345C330,1379 377,1405 430,1423C483,1440 540,1449 601,1449z" unicode="2" id="glyph2452"></glyph><glyph d="M620,1449C681,1449 737,1440 788,1423C839,1406 884,1381 921,1349C958,1317 986,1278 1007,1233C1028,1188 1038,1137 1038,1082C1038,1037 1032,996 1021,961C1009,925 992,894 971,867C949,840 923,817 892,798C861,779 827,764 789,753C882,728 953,687 1000,629C1047,571 1070,498 1070,411C1070,345 1058,286 1033,233C1008,180 973,136 930,99C887,62 836,33 779,14C721,-6 659,-16 593,-16C517,-16 452,-6 398,13C344,32 298,58 261,91C224,124 193,164 169,210C145,255 125,305 108,358l76,32C198,396 212,399 226,399C239,399 251,396 262,391C272,385 280,376 285,364C286,361 288,359 289,356C290,353 292,349 293,346C302,327 314,305 327,281C340,256 358,233 381,212C404,191 432,173 466,158C499,143 541,136 591,136C641,136 685,144 723,161C760,177 792,198 817,224C842,250 860,279 873,311C886,343 892,375 892,406C892,445 887,480 877,512C866,544 848,572 821,595C794,618 756,637 709,650C661,663 600,670 525,670l0,129C586,800 638,806 681,819C724,832 759,849 786,871C813,893 833,919 846,950C858,981 864,1015 864,1052C864,1093 858,1129 845,1160C832,1191 814,1216 791,1236C768,1256 742,1271 711,1281C680,1291 646,1296 610,1296C574,1296 541,1291 510,1280C479,1269 452,1255 429,1236C405,1217 385,1194 369,1168C353,1141 341,1113 333,1082C328,1063 320,1049 309,1040C298,1031 285,1027 268,1027C265,1027 261,1027 258,1028C254,1028 250,1028 245,1029l-93,16C161,1110 179,1168 206,1219C233,1269 267,1311 308,1345C349,1379 396,1405 449,1423C502,1440 559,1449 620,1449z" unicode="3" id="glyph2454"></glyph><glyph d="M903,517l217,0l0,-102C1120,404 1117,395 1111,388C1104,381 1094,377 1081,377l-178,0l0,-377l-157,0l0,377l-635,0C98,377 86,381 77,389C67,396 61,406 58,417l-18,91l697,925l166,0M746,1108C746,1125 747,1144 748,1164C749,1184 751,1205 754,1226l-521,-709l513,0z" unicode="4" id="glyph2456"></glyph><glyph d="M978,1355C978,1330 970,1309 954,1293C938,1276 911,1268 873,1268l-450,0l-66,-376C432,908 501,916 564,916C639,916 705,905 762,883C819,861 866,831 905,792C944,753 973,708 993,655C1012,602 1022,545 1022,483C1022,407 1009,338 982,277C955,216 919,163 873,120C826,76 772,42 709,19C646,-4 579,-16 506,-16C464,-16 424,-12 385,-3C346,5 310,16 277,30C244,44 213,60 184,78C155,96 130,115 108,135l54,76C174,228 190,237 210,237C223,237 238,232 255,222C272,211 292,200 316,187C340,174 368,163 401,153C433,142 471,137 516,137C566,137 611,145 651,161C691,177 725,200 754,230C782,259 804,295 819,336C834,377 842,424 842,475C842,520 836,560 823,596C810,632 790,663 764,688C737,713 704,733 665,747C626,761 580,768 527,768C491,768 454,765 415,759C376,753 336,743 295,730l-112,33l116,670l679,0z" unicode="5" id="glyph2458"></glyph><glyph d="M650,878C707,878 762,869 813,850C864,831 909,803 948,767C987,730 1017,686 1040,633C1063,580 1074,519 1074,451C1074,385 1062,324 1038,267C1014,210 981,161 938,119C895,77 843,44 782,20C721,-4 655,-16 582,-16C510,-16 445,-4 387,19C328,42 278,74 237,117C196,159 164,210 142,271C119,331 108,398 108,473C108,536 122,602 150,673C178,744 222,820 283,901l363,489C655,1402 668,1412 685,1421C702,1429 721,1433 742,1433l158,0l-497,-629C437,827 475,846 516,859C557,872 602,878 650,878M280,442C280,396 287,354 300,316C313,278 333,245 359,218C384,191 416,170 453,155C490,140 532,132 579,132C627,132 670,140 709,155C748,170 781,192 809,219C836,246 858,279 873,316C888,353 895,394 895,438C895,485 888,527 873,565C858,602 838,634 811,661C784,687 752,707 715,721C678,735 637,742 592,742C544,742 501,734 462,718C423,701 391,679 364,652C337,624 316,592 302,556C287,519 280,481 280,442z" unicode="6" id="glyph2460"></glyph><glyph d="M1084,1433l0,-80C1084,1330 1082,1312 1077,1297C1072,1282 1066,1270 1061,1260l-593,-1197C459,46 447,31 432,19C417,6 396,0 370,0l-127,0l602,1182C854,1199 863,1214 872,1228C881,1242 891,1255 902,1268l-748,0C143,1268 133,1273 124,1282C115,1291 110,1301 110,1312l0,121z" unicode="7" id="glyph2462"></glyph><glyph d="M579,-16C508,-16 442,-6 383,13C324,32 273,59 230,94C187,129 154,172 131,223C108,273 96,329 96,392C96,484 120,560 168,620C216,679 285,722 374,747C299,775 242,817 204,873C165,928 146,995 146,1072C146,1125 156,1174 177,1220C198,1266 227,1306 265,1340C303,1374 349,1401 402,1420C455,1439 514,1449 579,1449C644,1449 703,1439 756,1420C809,1401 855,1374 893,1340C931,1306 960,1266 981,1220C1002,1174 1012,1125 1012,1072C1012,995 993,928 954,873C915,817 859,775 784,747C873,722 942,679 990,620C1038,560 1062,484 1062,392C1062,329 1050,273 1027,223C1003,172 970,129 928,94C885,59 834,32 775,13C716,-6 650,-16 579,-16M579,126C626,126 668,133 705,146C742,159 773,177 799,201C824,224 844,253 858,286C871,319 878,355 878,395C878,444 870,487 854,522C837,557 815,585 788,607C760,629 728,645 692,656C656,666 618,671 579,671C540,671 502,666 466,656C430,645 398,629 371,607C343,585 321,557 305,522C288,487 280,444 280,395C280,355 287,319 301,286C314,253 334,224 360,201C385,177 417,159 454,146C491,133 532,126 579,126M579,814C626,814 666,821 699,836C732,850 758,869 779,893C800,916 815,943 824,974C833,1005 838,1036 838,1069C838,1102 833,1134 822,1163C811,1192 794,1218 773,1240C751,1262 724,1279 692,1292C659,1305 622,1311 579,1311C536,1311 499,1305 467,1292C434,1279 407,1262 386,1240C364,1218 348,1192 337,1163C326,1134 320,1102 320,1069C320,1036 325,1005 334,974C343,943 358,916 379,893C400,869 427,850 460,836C493,821 532,814 579,814z" unicode="8" id="glyph2464"></glyph><glyph d="M549,588C495,588 444,597 396,615C347,633 305,660 268,695C231,730 202,773 181,824C159,875 148,933 148,999C148,1062 160,1120 183,1175C206,1230 239,1277 281,1318C323,1359 373,1391 431,1414C489,1437 553,1449 622,1449C691,1449 753,1438 809,1415C865,1392 913,1361 953,1320C993,1279 1024,1231 1046,1174C1067,1117 1078,1055 1078,986C1078,945 1074,906 1067,869C1059,832 1048,795 1033,760C1018,725 1001,690 981,655C960,620 937,583 911,546l-349,-504C553,29 541,19 525,12C509,4 491,0 470,0l-164,0l436,571C757,590 770,609 783,626C796,643 808,661 819,678C782,649 741,626 695,611C649,596 600,588 549,588M907,1007C907,1052 900,1092 886,1129C871,1165 851,1196 826,1221C801,1246 771,1266 736,1280C701,1293 662,1300 620,1300C576,1300 536,1293 500,1279C463,1264 432,1244 407,1219C381,1194 361,1163 347,1128C333,1093 326,1054 326,1012C326,967 333,926 346,891C359,855 377,825 402,800C426,775 456,757 491,744C526,731 565,725 608,725C656,725 699,733 736,749C773,764 804,785 829,811C854,837 874,867 887,901C900,935 907,970 907,1007z" unicode="9" id="glyph2466"></glyph><glyph d="M128,110C128,127 131,144 138,159C144,174 153,188 164,199C175,210 188,219 203,226C218,233 235,236 252,236C269,236 286,233 301,226C316,219 330,210 341,199C352,188 361,174 368,159C374,144 377,127 377,110C377,92 374,76 368,61C361,46 352,32 341,21C330,10 316,1 301,-5C286,-12 269,-15 252,-15C235,-15 218,-12 203,-5C188,1 175,10 164,21C153,32 144,46 138,61C131,76 128,92 128,110M128,860C128,877 131,894 138,909C144,924 153,938 164,949C175,960 188,969 203,976C218,983 235,986 252,986C269,986 286,983 301,976C316,969 330,960 341,949C352,938 361,924 368,909C374,894 377,877 377,860C377,842 374,826 368,811C361,796 352,782 341,771C330,760 316,751 301,745C286,738 269,735 252,735C235,735 218,738 203,745C188,751 175,760 164,771C153,782 144,796 138,811C131,826 128,842 128,860z" unicode=":" id="glyph2468"></glyph><glyph d="M134,123C134,138 137,153 143,167C148,180 156,192 167,203C177,213 189,221 204,227C219,233 235,236 252,236C272,236 290,232 306,225C321,218 334,208 345,195C355,182 363,167 368,150C373,133 376,114 376,94C376,64 372,33 363,1C354,-32 342,-64 326,-95C310,-127 290,-158 267,-188C243,-218 216,-246 186,-271l-30,29C147,-234 143,-225 143,-214C143,-205 148,-196 157,-187C164,-180 172,-170 183,-157C193,-145 203,-131 214,-115C225,-99 235,-81 244,-62C253,-43 259,-22 263,0l-13,0C233,0 217,3 203,9C189,15 177,24 167,35C156,46 148,59 143,74C137,89 134,105 134,123M128,860C128,877 131,894 138,909C144,924 153,938 164,949C175,960 188,969 203,976C218,983 235,986 252,986C269,986 286,983 301,976C316,969 330,960 341,949C352,938 361,924 368,909C374,894 377,877 377,860C377,842 374,826 368,811C361,796 352,782 341,771C330,760 316,751 301,745C286,738 269,735 252,735C235,735 218,738 203,745C188,751 175,760 164,771C153,782 144,796 138,811C131,826 128,842 128,860z" unicode=";" id="glyph2470"></glyph><glyph d="M148,710l774,401l0,-127C922,973 919,963 914,955C909,946 899,939 886,932l-449,-228C424,697 410,691 395,686C380,681 364,676 347,672C364,669 380,664 395,659C410,654 424,648 437,641l449,-227C899,407 909,400 914,391C919,382 922,373 922,362l0,-128l-774,402z" unicode="&lt;" id="glyph2472"></glyph><glyph d="M150,574l859,0l0,-135l-859,0M150,909l859,0l0,-135l-859,0z" unicode="=" id="glyph2474"></glyph><glyph d="M238,234l0,128C238,373 241,382 246,391C251,400 261,407 274,414l449,227C736,648 750,654 765,659C779,664 794,669 811,672C794,676 779,681 765,686C750,691 736,697 723,704l-449,228C261,939 251,946 246,955C241,963 238,973 238,984l0,127l773,-401l0,-74z" unicode="&gt;" id="glyph2476"></glyph><glyph d="M34,1305C55,1324 78,1343 103,1360C128,1377 155,1393 185,1406C214,1419 246,1430 281,1438C315,1445 352,1449 392,1449C445,1449 494,1441 539,1426C584,1411 622,1389 655,1361C688,1333 713,1299 732,1259C751,1219 760,1174 760,1124C760,1073 753,1030 738,993C723,956 704,924 681,897C658,869 632,845 605,825C578,804 552,785 529,767C505,749 485,731 468,713C451,695 441,675 438,653l-18,-153l-122,0l-12,166l0,11C286,705 294,730 309,752C324,773 343,794 366,813C389,832 413,851 440,870C466,889 491,910 514,933C537,956 556,982 571,1011C586,1040 593,1075 593,1115C593,1144 587,1170 576,1193C565,1216 549,1236 530,1253C511,1269 488,1281 462,1290C435,1299 407,1303 377,1303C336,1303 302,1298 273,1288C244,1278 219,1267 199,1255C179,1243 163,1232 151,1222C138,1212 128,1207 120,1207C103,1207 90,1215 81,1230M230,110C230,127 233,144 240,159C246,174 255,188 266,199C277,210 290,219 305,226C320,233 337,236 354,236C371,236 388,233 403,226C418,219 432,210 443,199C454,188 463,174 470,159C476,144 479,127 479,110C479,92 476,76 470,61C463,46 454,32 443,21C432,10 418,1 403,-5C388,-12 371,-15 354,-15C337,-15 320,-12 305,-5C290,1 277,10 266,21C255,32 246,46 240,61C233,76 230,92 230,110z" unicode="?" id="glyph2478"></glyph><glyph d="M1167,186C1115,186 1073,199 1040,224C1007,249 987,287 978,339C939,285 897,246 852,223C807,200 758,188 706,188C666,188 631,195 602,209C573,222 548,241 529,266C509,290 494,319 485,352C475,385 470,421 470,460C470,517 481,574 503,632C524,689 556,741 599,788C642,834 695,872 759,901C822,930 896,945 979,945C1024,945 1063,942 1097,935C1130,928 1162,917 1192,904l-93,-361C1086,493 1080,452 1080,419C1080,395 1083,375 1089,360C1095,344 1103,332 1114,323C1124,314 1136,307 1150,304C1163,301 1178,299 1193,299C1226,299 1257,308 1286,327C1315,346 1341,372 1364,406C1386,440 1404,481 1417,529C1430,576 1436,629 1436,687C1436,779 1421,860 1392,929C1362,998 1321,1056 1270,1103C1218,1149 1157,1184 1087,1207C1016,1230 940,1241 859,1241C770,1241 686,1224 608,1190C530,1156 462,1109 404,1049C346,989 300,918 267,836C234,754 217,665 217,568C217,455 235,355 271,270C306,184 355,112 417,54C478,-4 551,-48 634,-77C717,-106 806,-121 901,-121C1002,-121 1092,-110 1170,-88C1247,-66 1314,-38 1371,-4C1381,2 1390,5 1398,5C1412,5 1422,-3 1429,-19l25,-66C1383,-133 1302,-171 1211,-198C1120,-225 1016,-239 901,-239C786,-239 678,-221 579,-184C480,-147 394,-94 321,-25C248,44 190,128 149,228C107,328 86,441 86,568C86,641 95,711 114,778C132,845 158,908 191,967C224,1025 264,1078 311,1127C358,1175 410,1216 467,1251C524,1285 586,1312 652,1331C718,1350 787,1359 859,1359C920,1359 980,1352 1039,1339C1098,1326 1153,1306 1206,1280C1258,1254 1306,1222 1350,1184C1394,1145 1432,1101 1464,1052C1495,1002 1520,947 1538,886C1555,825 1564,758 1564,687C1564,615 1554,549 1534,488C1513,427 1485,374 1450,329C1414,284 1372,249 1324,224C1275,199 1223,186 1167,186M741,306C762,306 783,309 804,316C825,323 845,334 865,351C884,368 902,390 919,419C935,448 949,484 960,527l76,295C1010,828 982,831 951,831C901,831 855,821 814,800C772,779 736,751 706,717C676,683 653,644 636,600C619,556 610,511 610,465C610,417 621,379 643,350C665,321 698,306 741,306z" unicode="@" id="glyph2480"></glyph><glyph d="M1353,0l-150,0C1186,0 1172,4 1161,13C1150,22 1142,33 1137,46l-134,346l-643,0l-134,-346C221,34 213,23 202,14C191,5 177,0 160,0l-150,0l573,1433l197,0M414,532l535,0l-225,583C709,1151 695,1196 681,1250C674,1223 667,1198 660,1175C653,1152 646,1131 639,1114z" unicode="A" id="glyph2482"></glyph><glyph d="M174,0l0,1433l457,0C719,1433 795,1424 859,1407C922,1390 975,1365 1016,1333C1057,1301 1087,1262 1107,1216C1126,1169 1136,1117 1136,1059C1136,1024 1131,990 1120,957C1109,924 1092,894 1070,866C1047,838 1019,813 986,791C952,769 912,751 867,737C972,716 1051,679 1104,624C1157,569 1184,497 1184,408C1184,347 1173,292 1151,242C1128,192 1096,149 1053,113C1010,77 957,49 895,30C832,10 761,0 681,0M368,653l0,-499l310,0C733,154 781,160 821,173C860,186 893,204 919,227C944,250 963,277 975,309C987,340 993,375 993,413C993,487 967,546 915,589C862,632 783,653 677,653M368,791l256,0C679,791 726,797 766,809C806,821 839,838 866,859C892,880 911,906 924,937C937,967 943,1000 943,1036C943,1120 918,1182 867,1221C816,1260 738,1280 631,1280l-263,0z" unicode="B" id="glyph2484"></glyph><glyph d="M1184,296C1195,296 1204,292 1213,283l76,-83C1230,132 1159,79 1076,41C992,3 891,-16 773,-16C670,-16 576,2 492,38C408,73 336,123 277,188C218,252 172,329 139,419C106,509 90,608 90,716C90,824 108,923 143,1013C178,1103 227,1180 290,1245C353,1310 429,1360 518,1396C606,1431 703,1449 810,1449C915,1449 1006,1433 1083,1400C1159,1367 1227,1323 1286,1267l-63,-89C1218,1171 1213,1166 1207,1162C1201,1157 1192,1155 1181,1155C1172,1155 1163,1158 1154,1165C1144,1171 1132,1179 1119,1188C1106,1197 1090,1207 1072,1218C1054,1229 1033,1239 1008,1248C983,1257 955,1265 922,1272C889,1278 852,1281 809,1281C732,1281 662,1268 599,1242C535,1215 480,1178 434,1129C388,1080 352,1021 327,951C301,881 288,803 288,716C288,627 301,547 327,477C352,407 387,348 432,300C476,251 528,214 589,189C650,164 715,151 785,151C828,151 866,154 900,159C934,164 966,171 995,182C1024,193 1051,206 1076,223C1101,239 1126,258 1151,281C1162,291 1173,296 1184,296z" unicode="C" id="glyph2486"></glyph><glyph d="M1416,716C1416,609 1399,511 1365,423C1331,335 1283,260 1221,197C1159,134 1085,86 998,52C911,17 815,0 710,0l-536,0l0,1433l536,0C815,1433 911,1416 998,1382C1085,1347 1159,1299 1221,1236C1283,1173 1331,1097 1365,1009C1399,921 1416,823 1416,716M1217,716C1217,804 1205,883 1181,952C1157,1021 1123,1080 1079,1128C1035,1176 982,1213 919,1238C856,1263 787,1276 710,1276l-341,0l0,-1119l341,0C787,157 856,170 919,195C982,220 1035,257 1079,305C1123,352 1157,411 1181,480C1205,549 1217,628 1217,716z" unicode="D" id="glyph2488"></glyph><glyph d="M1057,1433l0,-158l-688,0l0,-476l557,0l0,-152l-557,0l0,-489l688,0l0,-158l-883,0l0,1433z" unicode="E" id="glyph2490"></glyph><glyph d="M1057,1433l0,-158l-688,0l0,-501l588,0l0,-158l-588,0l0,-616l-195,0l0,1433z" unicode="F" id="glyph2492"></glyph><glyph d="M813,141C852,141 887,143 920,147C952,150 982,156 1011,163C1040,170 1067,179 1092,190C1117,200 1143,212 1168,225l0,316l-222,0C933,541 923,545 916,552C908,559 904,568 904,579l0,110l440,0l0,-550C1308,113 1271,90 1232,71C1193,52 1151,36 1107,23C1062,10 1015,0 964,-6C913,-13 858,-16 799,-16C695,-16 600,2 513,38C426,73 352,123 289,188C226,252 178,329 143,419C108,509 90,608 90,716C90,825 107,925 142,1015C176,1105 225,1182 289,1247C352,1311 429,1361 520,1396C610,1431 711,1449 823,1449C880,1449 932,1445 981,1437C1030,1428 1075,1416 1117,1401C1158,1385 1197,1366 1232,1344C1267,1321 1300,1296 1331,1268l-55,-88C1265,1162 1250,1153 1232,1153C1221,1153 1210,1157 1197,1164C1180,1173 1162,1185 1141,1198C1120,1211 1095,1224 1066,1237C1036,1249 1001,1259 961,1268C920,1277 872,1281 817,1281C736,1281 663,1268 598,1242C533,1215 477,1178 431,1129C385,1080 350,1020 325,951C300,881 288,803 288,716C288,625 301,545 327,474C352,403 388,342 435,293C482,244 537,206 601,180C665,154 736,141 813,141z" unicode="G" id="glyph2494"></glyph><glyph d="M1336,0l-195,0l0,652l-772,0l0,-652l-195,0l0,1433l195,0l0,-639l772,0l0,639l195,0z" unicode="H" id="glyph2496"></glyph><glyph d="M404,0l-194,0l0,1433l194,0z" unicode="I" id="glyph2498"></glyph><glyph d="M713,495C713,415 703,343 684,280C664,217 635,163 597,120C558,76 511,42 455,19C399,-4 335,-16 262,-16C197,-16 130,-7 60,12C61,31 63,51 65,70C67,89 69,107 71,126C72,137 77,147 84,154C91,161 101,164 115,164C127,164 143,161 163,155C183,149 210,146 243,146C287,146 326,153 361,166C395,179 424,200 448,228C471,256 489,292 502,336C514,379 520,431 520,491l0,942l193,0z" unicode="J" id="glyph2500"></glyph><glyph d="M387,805l73,0C485,805 506,808 521,815C536,821 550,832 563,847l477,540C1055,1404 1069,1416 1083,1423C1096,1430 1114,1433 1135,1433l165,0l-546,-617C740,801 727,788 715,777C702,766 689,758 675,751C694,745 710,736 724,724C738,712 753,697 768,679l570,-679l-168,0C1157,0 1147,1 1138,3C1129,5 1122,8 1116,11C1109,14 1103,19 1098,24C1093,29 1087,35 1082,41l-495,569C580,618 573,625 567,631C560,636 553,641 545,645C536,649 527,652 516,654C505,655 491,656 475,656l-88,0l0,-656l-193,0l0,1433l193,0z" unicode="K" id="glyph2502"></glyph><glyph d="M368,163l620,0l0,-163l-814,0l0,1433l194,0z" unicode="L" id="glyph2504"></glyph><glyph d="M879,518C888,502 897,485 904,468C911,450 917,432 924,414C931,433 938,451 945,468C952,485 961,502 970,519l485,881C1464,1415 1473,1425 1482,1428C1491,1431 1505,1433 1522,1433l143,0l0,-1433l-170,0l0,1053C1495,1067 1495,1082 1496,1098C1497,1114 1498,1130 1499,1147l-491,-896C991,221 968,206 938,206l-28,0C880,206 857,221 840,251l-502,899C340,1133 342,1116 343,1099C344,1082 344,1067 344,1053l0,-1053l-170,0l0,1433l143,0C334,1433 348,1431 357,1428C366,1425 375,1415 384,1400l495,-882z" unicode="M" id="glyph2506"></glyph><glyph d="M274,1433C291,1433 304,1431 313,1427C321,1422 330,1413 341,1400l830,-1080C1169,337 1168,354 1167,371C1166,387 1166,403 1166,418l0,1015l170,0l0,-1433l-98,0C1223,0 1210,3 1200,8C1189,13 1179,22 1169,35l-829,1079C341,1097 342,1081 343,1065C344,1049 344,1034 344,1021l0,-1021l-170,0l0,1433l100,0z" unicode="N" id="glyph2508"></glyph><glyph d="M1505,716C1505,609 1488,510 1454,421C1420,331 1372,254 1310,189C1248,124 1174,74 1087,39C1000,3 903,-15 798,-15C693,-15 597,3 510,39C423,74 349,124 287,189C225,254 177,331 143,421C109,510 92,609 92,716C92,823 109,922 143,1012C177,1101 225,1179 287,1244C349,1309 423,1359 510,1395C597,1431 693,1449 798,1449C903,1449 1000,1431 1087,1395C1174,1359 1248,1309 1310,1244C1372,1179 1420,1101 1454,1012C1488,922 1505,823 1505,716M1306,716C1306,804 1294,883 1270,953C1246,1023 1212,1082 1168,1131C1124,1179 1071,1216 1008,1242C945,1268 875,1281 798,1281C721,1281 652,1268 589,1242C526,1216 473,1179 429,1131C384,1082 350,1023 326,953C302,883 290,804 290,716C290,628 302,549 326,480C350,410 384,351 429,303C473,254 526,217 589,192C652,166 721,153 798,153C875,153 945,166 1008,192C1071,217 1124,254 1168,303C1212,351 1246,410 1270,480C1294,549 1306,628 1306,716z" unicode="O" id="glyph2510"></glyph><glyph d="M387,536l0,-536l-193,0l0,1433l423,0C708,1433 787,1423 854,1402C921,1381 976,1351 1020,1312C1064,1273 1097,1227 1119,1172C1140,1117 1151,1056 1151,989C1151,922 1139,861 1116,806C1093,751 1059,703 1014,663C969,623 913,592 846,570C779,547 703,536 617,536M387,690l230,0C672,690 721,697 764,712C806,727 841,747 870,774C899,800 920,831 935,868C950,905 957,945 957,989C957,1080 929,1152 873,1203C816,1254 731,1280 617,1280l-230,0z" unicode="P" id="glyph2512"></glyph><glyph d="M1505,716C1505,649 1498,585 1485,524C1471,463 1451,407 1425,355C1399,302 1367,255 1330,212C1293,169 1251,132 1204,101l368,-397l-160,0C1388,-296 1367,-293 1348,-286C1329,-279 1312,-268 1297,-251l-252,274C1007,11 968,2 927,-5C886,-12 843,-15 798,-15C693,-15 597,3 510,39C423,74 349,124 287,189C225,254 177,331 143,421C109,510 92,609 92,716C92,823 109,922 143,1012C177,1101 225,1179 287,1244C349,1309 423,1359 510,1395C597,1431 693,1449 798,1449C903,1449 1000,1431 1087,1395C1174,1359 1248,1309 1310,1244C1372,1179 1420,1101 1454,1012C1488,922 1505,823 1505,716M1306,716C1306,804 1294,883 1270,953C1246,1023 1212,1082 1168,1131C1124,1179 1071,1216 1008,1242C945,1268 875,1281 798,1281C721,1281 652,1268 589,1242C526,1216 473,1179 429,1131C384,1082 350,1023 326,953C302,883 290,804 290,716C290,628 302,549 326,480C350,410 384,351 429,303C473,254 526,217 589,192C652,166 721,153 798,153C875,153 945,166 1008,192C1071,217 1124,254 1168,303C1212,351 1246,410 1270,480C1294,549 1306,628 1306,716z" unicode="Q" id="glyph2514"></glyph><glyph d="M387,598l0,-598l-193,0l0,1433l405,0C690,1433 768,1424 834,1406C900,1387 955,1361 998,1326C1041,1291 1072,1250 1093,1201C1114,1152 1124,1097 1124,1036C1124,985 1116,938 1100,894C1084,850 1061,811 1031,776C1000,741 963,711 920,686C876,661 826,643 771,630C795,616 816,596 835,569l418,-569l-172,0C1046,0 1020,14 1003,41l-372,512C620,569 607,581 594,588C581,595 561,598 534,598M387,739l203,0C647,739 697,746 740,760C783,773 819,793 848,818C877,843 898,872 913,907C928,942 935,980 935,1022C935,1107 907,1172 851,1215C794,1258 710,1280 599,1280l-212,0z" unicode="R" id="glyph2516"></glyph><glyph d="M908,1209C902,1199 896,1192 889,1187C882,1182 874,1179 863,1179C852,1179 839,1185 824,1196C809,1207 790,1220 767,1234C744,1247 716,1260 684,1271C651,1282 612,1288 566,1288C523,1288 484,1282 451,1271C418,1259 390,1243 368,1223C345,1203 328,1180 317,1153C306,1126 300,1096 300,1065C300,1025 310,992 330,966C349,939 375,917 408,898C440,879 477,863 518,850C559,836 601,822 644,807C687,792 729,776 770,758C811,739 847,716 880,688C912,660 938,626 958,585C977,544 987,494 987,435C987,372 976,314 955,259C934,204 903,156 862,115C821,74 770,42 711,19C651,-4 583,-16 507,-16C414,-16 330,1 254,35C177,68 112,114 58,171l56,92C119,270 126,277 134,282C141,287 150,289 159,289C173,289 189,282 207,267C225,252 248,235 275,217C302,199 334,183 373,168C411,153 458,145 513,145C559,145 600,151 636,164C672,177 703,195 728,218C753,241 772,268 785,300C798,332 805,368 805,407C805,450 795,486 776,514C756,541 730,564 698,583C666,602 630,618 589,631C548,644 506,657 463,671C420,684 378,700 337,718C296,736 259,759 227,788C195,817 169,853 150,896C130,939 120,992 120,1055C120,1106 130,1155 150,1202C169,1249 198,1291 235,1328C272,1365 319,1394 374,1416C429,1438 492,1449 563,1449C643,1449 716,1436 782,1411C848,1386 906,1349 955,1301z" unicode="S" id="glyph2518"></glyph><glyph d="M1150,1433l0,-163l-463,0l0,-1270l-194,0l0,1270l-465,0l0,163z" unicode="T" id="glyph2520"></glyph><glyph d="M731,154C790,154 843,164 890,184C937,204 976,232 1009,268C1041,304 1066,347 1083,397C1100,447 1108,502 1108,562l0,871l193,0l0,-871C1301,479 1288,403 1262,332C1235,261 1198,200 1149,149C1100,97 1040,56 969,27C898,-2 819,-17 731,-17C643,-17 564,-2 493,27C422,56 362,97 313,149C264,200 226,261 200,332C173,403 160,479 160,562l0,871l193,0l0,-870C353,503 362,448 379,398C396,348 420,305 453,269C485,233 525,205 572,185C619,164 672,154 731,154z" unicode="U" id="glyph2522"></glyph><glyph d="M8,1433l155,0C180,1433 194,1429 205,1420C216,1411 224,1400 229,1387l405,-1011C643,353 652,329 660,302C667,275 675,248 682,219C688,248 695,275 702,302C709,329 717,353 726,376l403,1011C1134,1398 1142,1409 1153,1419C1164,1428 1178,1433 1195,1433l156,0l-584,-1433l-175,0z" unicode="V" id="glyph2524"></glyph><glyph d="M14,1433l161,0C192,1433 207,1429 218,1420C229,1411 237,1400 241,1387l296,-996C542,373 547,354 552,333C556,312 560,291 564,268C569,291 573,313 578,334C583,355 588,374 594,391l337,996C935,1398 943,1409 955,1419C966,1428 980,1433 997,1433l56,0C1070,1433 1085,1429 1096,1420C1107,1411 1114,1400 1119,1387l335,-996C1466,356 1477,317 1486,272C1490,294 1494,315 1497,335C1500,355 1505,374 1510,391l297,996C1810,1399 1818,1410 1830,1419C1841,1428 1855,1433 1872,1433l151,0l-447,-1433l-174,0l-363,1093C1032,1114 1025,1138 1019,1165C1016,1152 1013,1139 1010,1127C1007,1114 1003,1103 1000,1093l-365,-1093l-174,0z" unicode="W" id="glyph2526"></glyph><glyph d="M507,736l-473,697l193,0C241,1433 251,1431 258,1426C265,1421 271,1415 276,1406l374,-574C655,846 662,861 671,878l353,524C1030,1411 1037,1419 1044,1425C1051,1430 1059,1433 1069,1433l185,0l-475,-688l491,-745l-192,0C1063,0 1052,4 1044,12C1035,19 1028,28 1023,37l-384,601C634,624 628,611 621,598l-374,-561C241,28 234,19 227,12C219,4 208,0 194,0l-180,0z" unicode="X" id="glyph2528"></glyph><glyph d="M726,570l0,-570l-193,0l0,570l-525,863l170,0C195,1433 209,1429 219,1420C229,1411 238,1401 245,1388l328,-557C586,808 598,786 607,765C616,744 624,724 631,704C638,725 646,745 655,766C664,787 675,808 688,831l327,557C1021,1399 1029,1409 1040,1419C1050,1428 1063,1433 1080,1433l172,0z" unicode="Y" id="glyph2530"></glyph><glyph d="M1172,1433l0,-72C1172,1338 1165,1317 1151,1297l-811,-1139l818,0l0,-158l-1072,0l0,76C86,96 92,115 105,133l812,1142l-793,0l0,158z" unicode="Z" id="glyph2532"></glyph><glyph d="M142,-289l0,1822l368,0l0,-70C510,1448 506,1437 497,1429C488,1420 476,1416 461,1416l-169,0l0,-1587l169,0C476,-171 488,-175 497,-183C506,-192 510,-204 510,-219l0,-70z" unicode="[" id="glyph2534"></glyph><glyph d="M-20,1473l76,0C78,1473 97,1467 113,1456C129,1445 141,1428 150,1407l601,-1497l-75,0C657,-90 638,-84 619,-73C600,-62 587,-44 578,-21z" unicode="\" id="glyph2536"></glyph><glyph d="M90,-219C90,-206 95,-194 104,-185C113,-176 124,-171 139,-171l169,0l0,1587l-169,0C124,1416 113,1421 104,1430C95,1439 90,1450 90,1463l0,70l368,0l0,-1822l-368,0z" unicode="]" id="glyph2538"></glyph><glyph d="M516,1433l115,0l358,-646l-129,0C849,787 839,790 831,797C823,804 816,812 811,821l-196,352C606,1188 599,1203 593,1218C586,1232 581,1246 576,1260C567,1231 554,1202 539,1173l-194,-352C340,812 333,804 326,797C318,790 307,787 294,787l-136,0z" unicode="^" id="glyph2540"></glyph><glyph d="M788,-165l0,-120l-788,0l0,120z" unicode="_" id="glyph2542"></glyph><glyph d="M207,1449C229,1449 245,1446 256,1439C267,1432 277,1420 286,1405l149,-242l-102,0C319,1163 308,1165 299,1170C290,1174 281,1181 272,1191l-234,258z" unicode="`" id="glyph2544"></glyph><glyph d="M890,0l-79,0C794,0 780,3 769,8C758,13 751,25 748,42l-20,94C701,112 675,91 650,72C625,53 598,37 570,24C542,11 512,1 481,-6C449,-13 414,-16 375,-16C336,-16 299,-10 265,1C230,12 200,28 175,50C150,72 130,100 115,134C100,167 92,207 92,253C92,293 103,332 125,369C147,406 183,438 232,467C281,496 345,519 424,538C503,556 600,566 715,569l0,79C715,727 698,786 665,827C631,867 581,887 515,887C472,887 435,882 406,871C376,860 350,847 329,834C307,820 288,808 273,797C257,786 241,780 226,780C214,780 204,783 195,790C186,796 178,804 173,813l-32,57C197,924 257,964 322,991C387,1018 458,1031 537,1031C594,1031 644,1022 688,1003C732,984 769,958 799,925C829,892 852,851 867,804C882,757 890,705 890,648M428,109C459,109 488,112 514,119C540,125 565,134 588,146C611,157 633,171 654,188C675,205 695,224 715,245l0,211C633,453 563,447 506,437C449,426 402,413 366,396C330,379 304,360 288,337C271,314 263,289 263,261C263,234 267,211 276,192C285,173 296,157 311,145C326,132 343,123 363,118C383,112 405,109 428,109z" unicode="a" id="glyph2546"></glyph><glyph d="M152,0l0,1473l179,0l0,-606C373,916 421,955 476,985C530,1014 592,1029 662,1029C721,1029 774,1018 821,996C868,974 909,941 942,898C975,854 1001,800 1019,736C1037,671 1046,597 1046,513C1046,438 1036,369 1016,305C996,240 967,185 930,138C892,91 846,54 792,27C737,0 676,-14 608,-14C543,-14 487,-1 442,24C396,49 356,85 322,130l-9,-92C308,13 292,0 267,0M604,887C546,887 495,874 452,847C408,820 368,783 331,734l0,-490C363,200 399,169 438,151C477,133 520,124 568,124C663,124 735,158 786,225C837,292 862,388 862,513C862,579 856,636 845,683C833,730 816,769 794,800C772,830 745,852 713,866C681,880 645,887 604,887z" unicode="b" id="glyph2548"></glyph><glyph d="M837,833C832,826 826,820 821,816C816,812 808,810 798,810C788,810 777,814 766,823C754,831 739,840 721,850C703,860 681,869 656,878C630,886 598,890 561,890C512,890 468,881 430,864C392,846 360,820 335,787C309,754 290,713 277,666C264,619 257,566 257,507C257,446 264,391 278,344C292,296 312,256 337,224C362,191 393,167 430,150C466,133 507,124 552,124C595,124 631,129 659,140C687,150 710,161 729,174C748,187 763,198 775,209C787,219 799,224 811,224C826,224 838,218 845,207l50,-65C851,88 796,49 730,24C664,-1 594,-14 521,-14C458,-14 399,-2 345,21C290,44 243,78 203,123C163,167 132,221 109,286C86,351 74,424 74,507C74,582 85,652 106,716C127,780 157,835 198,882C238,928 288,964 347,990C406,1016 474,1029 551,1029C622,1029 684,1018 739,995C794,972 842,939 884,897z" unicode="c" id="glyph2550"></glyph><glyph d="M859,0C834,0 818,12 811,37l-16,123C752,107 702,65 647,34C591,2 527,-14 455,-14C397,-14 344,-3 297,20C250,42 209,75 176,118C143,161 117,215 99,280C81,345 72,419 72,503C72,578 82,647 102,712C122,776 151,832 189,879C226,926 272,964 326,991C380,1018 441,1031 510,1031C572,1031 625,1021 669,1000C713,979 752,949 787,911l0,562l178,0l0,-1473M514,130C572,130 623,143 667,170C710,197 750,234 787,283l0,490C754,817 719,848 680,866C641,883 597,892 550,892C455,892 383,858 332,791C281,724 256,628 256,503C256,437 262,381 273,334C284,287 301,248 323,218C345,187 372,165 404,151C436,137 473,130 514,130z" unicode="d" id="glyph2552"></glyph><glyph d="M547,1029C608,1029 664,1019 715,999C766,978 811,949 848,911C885,872 915,825 936,769C957,712 967,648 967,576C967,548 964,529 958,520C952,511 941,506 924,506l-674,0C251,442 260,386 276,339C292,292 314,252 342,221C370,189 403,165 442,150C481,134 524,126 572,126C617,126 655,131 688,142C720,152 748,163 771,175C794,187 814,198 830,209C845,219 859,224 870,224C885,224 896,218 904,207l50,-65C932,115 906,92 875,73C844,53 812,37 777,24C742,11 705,2 668,-4C631,-11 594,-14 557,-14C487,-14 423,-2 364,22C305,45 254,80 211,126C168,171 134,228 110,295C86,362 74,440 74,527C74,598 85,664 107,725C128,786 159,840 200,885C241,930 290,965 349,991C408,1016 474,1029 547,1029M551,898C465,898 397,873 348,824C299,774 268,705 256,617l551,0C807,658 801,696 790,731C779,765 762,795 740,820C718,845 691,864 660,878C628,891 592,898 551,898z" unicode="e" id="glyph2554"></glyph><glyph d="M186,0l0,861l-112,13C60,877 49,883 40,890C31,897 26,907 26,920l0,73l160,0l0,98C186,1149 194,1201 211,1246C227,1291 250,1329 281,1360C311,1391 347,1414 390,1430C433,1446 481,1454 534,1454C579,1454 621,1447 660,1434l-4,-89C655,1332 650,1324 639,1321C628,1318 613,1317 594,1317l-31,0C532,1317 505,1313 480,1305C455,1297 433,1284 415,1266C397,1248 383,1224 374,1195C364,1166 359,1129 359,1086l0,-93l293,0l0,-129l-287,0l0,-864z" unicode="f" id="glyph2556"></glyph><glyph d="M487,1030C531,1030 572,1025 611,1016C649,1006 684,992 715,973l275,0l0,-66C990,885 976,871 948,865l-115,-16C856,806 867,757 867,704C867,655 858,610 839,570C820,529 793,495 760,466C726,437 686,415 640,400C593,385 542,377 487,377C440,377 395,383 353,394C332,381 316,366 305,351C294,336 288,321 288,306C288,282 298,264 317,252C336,239 362,230 394,225C426,220 462,216 503,215C544,214 585,212 628,209C670,206 711,200 752,193C793,186 829,174 861,157C893,140 919,117 938,88C957,59 967,21 967,-26C967,-69 956,-111 935,-152C913,-193 882,-229 841,-260C800,-292 751,-317 692,-336C633,-355 567,-365 493,-365C419,-365 354,-358 299,-343C243,-328 197,-309 160,-284C123,-259 96,-231 78,-198C59,-166 50,-132 50,-97C50,-47 66,-4 98,31C129,66 173,93 228,114C199,127 177,145 160,168C143,190 134,220 134,257C134,272 137,287 142,303C147,318 156,334 167,349C178,364 191,379 207,393C223,407 242,419 263,430C213,458 174,495 146,542C117,588 103,642 103,704C103,753 113,798 132,839C151,879 177,913 211,942C245,970 286,992 333,1007C380,1022 431,1030 487,1030M803,-55C803,-30 796,-9 782,6C768,21 749,33 725,42C701,50 673,56 642,60C611,64 578,67 543,69C508,70 473,72 437,74C401,76 367,80 334,85C296,67 265,45 242,19C218,-7 206,-38 206,-74C206,-97 212,-118 224,-137C235,-157 253,-174 277,-188C301,-203 331,-214 368,-222C404,-231 447,-235 496,-235C544,-235 587,-231 625,-222C663,-213 695,-201 722,-185C748,-169 768,-150 782,-128C796,-106 803,-82 803,-55M487,495C523,495 555,500 583,510C610,520 633,534 652,552C671,570 685,592 694,617C703,642 708,669 708,699C708,761 689,810 652,847C614,884 559,902 487,902C416,902 361,884 324,847C286,810 267,761 267,699C267,669 272,642 282,617C291,592 305,570 324,552C343,534 366,520 393,510C420,500 452,495 487,495z" unicode="g" id="glyph2558"></glyph><glyph d="M146,0l0,1473l178,0l0,-596C367,923 415,960 468,988C521,1015 581,1029 650,1029C705,1029 754,1020 797,1002C839,983 874,957 903,924C931,890 952,849 967,802C982,755 989,702 989,645l0,-645l-178,0l0,645C811,722 794,781 759,824C724,866 670,887 598,887C545,887 496,874 451,849C405,824 363,789 324,746l0,-746z" unicode="h" id="glyph2560"></glyph><glyph d="M344,1013l0,-1013l-178,0l0,1013M384,1331C384,1314 381,1298 374,1283C367,1268 357,1254 346,1243C334,1231 320,1222 305,1215C290,1208 273,1205 256,1205C239,1205 223,1208 208,1215C193,1222 179,1231 168,1243C156,1254 147,1268 140,1283C133,1298 130,1314 130,1331C130,1348 133,1365 140,1381C147,1396 156,1410 168,1422C179,1433 193,1442 208,1449C223,1456 239,1459 256,1459C273,1459 290,1456 305,1449C320,1442 334,1433 346,1422C357,1410 367,1396 374,1381C381,1365 384,1348 384,1331z" unicode="i" id="glyph2562"></glyph><glyph d="M344,1013l0,-1088C344,-116 339,-153 328,-188C317,-223 301,-254 278,-280C255,-306 225,-326 189,-341C152,-356 109,-364 58,-364C36,-364 16,-362 -2,-359C-20,-356 -38,-351 -56,-344l8,96C-47,-239 -44,-234 -39,-231C-34,-229 -27,-228 -17,-228C-12,-228 -6,-228 0,-228C6,-229 13,-229 22,-229C74,-229 111,-217 133,-192C155,-168 166,-129 166,-75l0,1088M384,1331C384,1314 381,1298 374,1283C367,1268 357,1254 346,1243C334,1231 320,1222 305,1215C290,1208 273,1205 256,1205C239,1205 223,1208 208,1215C193,1222 179,1231 168,1243C156,1254 147,1268 140,1283C133,1298 130,1314 130,1331C130,1348 133,1365 140,1381C147,1396 156,1410 168,1422C179,1433 193,1442 208,1449C223,1456 239,1459 256,1459C273,1459 290,1456 305,1449C320,1442 334,1433 346,1422C357,1410 367,1396 374,1381C381,1365 384,1348 384,1331z" unicode="j" id="glyph2564"></glyph><glyph d="M331,1473l0,-867l46,0C390,606 401,608 410,612C419,615 428,623 439,634l320,343C769,988 779,996 789,1003C799,1010 812,1013 829,1013l162,0l-373,-397C609,605 600,595 591,586C582,577 571,570 560,563C572,555 583,546 593,536C602,525 611,513 620,500l396,-500l-160,0C841,0 829,3 819,9C808,14 798,23 789,35l-333,415C446,464 436,473 426,478C416,482 401,484 381,484l-50,0l0,-484l-179,0l0,1473z" unicode="k" id="glyph2566"></glyph><glyph d="M344,1473l0,-1473l-178,0l0,1473z" unicode="l" id="glyph2568"></glyph><glyph d="M146,0l0,1013l106,0C277,1013 293,1001 300,976l13,-104C350,918 392,956 439,985C485,1014 539,1029 600,1029C669,1029 724,1010 767,972C809,934 839,883 858,818C872,855 891,886 914,913C937,940 962,962 991,979C1020,996 1050,1009 1083,1017C1115,1025 1148,1029 1181,1029C1234,1029 1282,1021 1324,1004C1365,987 1401,962 1430,929C1459,896 1481,856 1496,809C1511,761 1519,706 1519,645l0,-645l-178,0l0,645C1341,724 1324,785 1289,826C1254,867 1204,887 1138,887C1109,887 1081,882 1055,872C1028,861 1005,846 985,826C965,806 949,781 938,751C926,720 920,685 920,645l0,-645l-178,0l0,645C742,726 726,787 693,827C660,867 613,887 550,887C506,887 465,875 428,852C390,828 355,796 324,755l0,-755z" unicode="m" id="glyph2570"></glyph><glyph d="M146,0l0,1013l106,0C277,1013 293,1001 300,976l14,-110C358,915 407,954 462,984C516,1014 579,1029 650,1029C705,1029 754,1020 797,1002C839,983 874,957 903,924C931,890 952,849 967,802C982,755 989,702 989,645l0,-645l-178,0l0,645C811,722 794,781 759,824C724,866 670,887 598,887C545,887 496,874 451,849C405,824 363,789 324,746l0,-746z" unicode="n" id="glyph2572"></glyph><glyph d="M556,1029C630,1029 697,1017 757,992C816,967 867,932 909,887C950,842 982,787 1005,723C1027,658 1038,586 1038,507C1038,427 1027,355 1005,291C982,227 950,172 909,127C867,82 816,47 757,23C697,-2 630,-14 556,-14C482,-14 415,-2 356,23C296,47 245,82 203,127C161,172 129,227 106,291C83,355 72,427 72,507C72,586 83,658 106,723C129,787 161,842 203,887C245,932 296,967 356,992C415,1017 482,1029 556,1029M556,125C656,125 731,159 780,226C829,293 854,386 854,506C854,627 829,721 780,788C731,855 656,889 556,889C505,889 461,880 424,863C387,846 356,821 331,788C306,755 287,715 275,668C262,620 256,566 256,506C256,446 262,392 275,345C287,298 306,258 331,226C356,193 387,168 424,151C461,134 505,125 556,125z" unicode="o" id="glyph2574"></glyph><glyph d="M146,-343l0,1356l106,0C277,1013 293,1001 300,976l15,-120C358,909 408,951 464,983C519,1015 583,1031 656,1031C714,1031 767,1020 814,998C861,975 902,942 935,899C968,855 994,801 1012,736C1030,671 1039,597 1039,513C1039,438 1029,369 1009,305C989,240 960,185 923,138C886,91 840,54 786,27C731,0 670,-14 602,-14C539,-14 486,-4 442,17C397,38 358,67 324,105l0,-448M597,887C539,887 488,874 445,847C401,820 361,783 324,734l0,-490C357,200 393,169 432,151C471,133 514,124 562,124C656,124 728,158 779,225C830,292 855,388 855,513C855,579 849,636 838,683C826,730 809,769 787,800C765,830 738,852 706,866C674,880 638,887 597,887z" unicode="p" id="glyph2576"></glyph><glyph d="M965,1013l0,-1356l-178,0l0,493C744,101 696,61 642,31C587,1 525,-14 455,-14C397,-14 344,-3 297,20C250,42 209,75 176,118C143,161 117,215 99,280C81,345 72,419 72,503C72,578 82,647 102,712C122,776 151,832 189,879C226,926 272,964 326,991C380,1018 441,1031 510,1031C575,1031 631,1019 677,996C722,973 763,940 799,897l12,79C818,1001 834,1013 859,1013M514,130C572,130 623,143 667,170C710,197 750,234 787,283l0,490C755,816 719,846 680,865C641,883 597,892 550,892C455,892 383,858 332,791C281,724 256,628 256,503C256,437 262,381 273,334C284,287 301,248 323,218C345,187 372,165 404,151C436,137 473,130 514,130z" unicode="q" id="glyph2578"></glyph><glyph d="M146,0l0,1013l102,0C267,1013 281,1009 288,1002C295,995 300,982 303,964l12,-158C350,877 393,932 444,972C495,1011 554,1031 623,1031C651,1031 676,1028 699,1022C722,1015 743,1006 762,995l-23,-133C734,845 724,837 708,837C699,837 684,840 665,847C646,853 619,856 584,856C522,856 470,838 429,802C387,766 352,714 324,645l0,-645z" unicode="r" id="glyph2580"></glyph><glyph d="M726,846C718,831 706,824 689,824C679,824 668,828 655,835C642,842 627,851 609,860C590,869 568,877 543,885C518,892 488,896 453,896C423,896 396,892 372,885C348,877 328,866 311,853C294,840 281,824 272,807C263,789 258,770 258,749C258,723 266,701 281,684C296,667 315,652 340,639C365,626 393,615 424,606C455,596 488,586 521,575C554,564 586,551 617,538C648,525 676,508 701,488C726,468 746,444 761,415C776,386 783,351 783,310C783,263 775,220 758,181C741,141 717,107 684,78C651,49 611,26 564,9C517,-8 462,-16 400,-16C329,-16 265,-4 208,19C151,42 102,71 62,107l42,68C109,184 116,190 123,195C130,200 140,202 152,202C164,202 177,197 190,188C203,179 220,168 239,157C258,146 281,135 308,126C335,117 368,112 409,112C444,112 474,117 500,126C526,135 548,147 565,162C582,177 595,195 604,215C612,235 616,256 616,279C616,307 609,330 594,349C579,367 559,383 534,396C509,409 481,420 450,430C418,439 386,449 353,460C320,471 287,483 256,497C224,510 196,527 171,548C146,569 127,594 112,625C97,655 89,692 89,735C89,774 97,811 113,847C129,882 152,914 183,941C214,968 251,989 296,1005C341,1021 392,1029 449,1029C516,1029 576,1019 629,998C682,977 727,948 766,911z" unicode="s" id="glyph2582"></glyph><glyph d="M453,-16C373,-16 312,6 269,51C226,96 204,160 204,244l0,620l-122,0C71,864 62,867 55,874C48,880 44,890 44,903l0,71l166,21l41,313C252,1318 257,1326 264,1333C271,1339 281,1342 292,1342l90,0l0,-349l290,0l0,-129l-290,0l0,-608C382,213 392,182 413,161C434,140 460,130 493,130C512,130 528,133 542,138C555,143 567,148 577,154C587,160 596,166 603,171C610,176 616,178 621,178C630,178 639,172 646,161l52,-85C667,47 630,25 587,9C544,-8 499,-16 453,-16z" unicode="t" id="glyph2584"></glyph><glyph d="M300,1013l0,-646C300,290 318,231 353,189C388,147 442,126 513,126C565,126 614,138 660,163C706,188 748,222 787,266l0,747l178,0l0,-1013l-106,0C834,0 818,12 811,37l-14,109C753,97 704,58 649,29C594,-1 532,-16 461,-16C406,-16 357,-7 315,12C272,30 237,56 208,89C179,122 158,163 144,210C129,257 122,310 122,367l0,646z" unicode="u" id="glyph2586"></glyph><glyph d="M18,1013l146,0C178,1013 190,1009 199,1002C208,995 215,986 219,976l257,-652C485,300 493,276 498,252C503,228 508,204 513,181C518,204 524,228 530,252C536,276 544,300 553,324l260,652C817,987 824,996 833,1003C842,1010 853,1013 866,1013l139,0l-413,-1013l-161,0z" unicode="v" id="glyph2588"></glyph><glyph d="M14,1013l140,0C169,1013 181,1009 190,1002C199,995 206,986 209,976l194,-652C408,300 413,277 418,255C423,232 427,210 430,187C435,210 441,232 448,255C455,277 462,300 469,324l214,656C686,990 692,998 701,1005C709,1012 719,1015 732,1015l77,0C822,1015 833,1012 842,1005C851,998 857,990 860,980l209,-656C1076,301 1083,278 1089,255C1094,232 1100,210 1105,188C1108,210 1113,233 1118,257C1123,281 1129,303 1135,324l198,652C1336,987 1343,996 1352,1003C1361,1010 1372,1013 1385,1013l134,0l-328,-1013l-141,0C1033,0 1021,11 1014,34l-224,687C785,736 780,752 777,768C774,783 770,799 767,814C764,799 760,783 757,767C754,751 749,735 744,720l-227,-686C510,11 496,0 476,0l-134,0z" unicode="w" id="glyph2590"></glyph><glyph d="M383,519l-341,494l171,0C228,1013 238,1011 245,1006C252,1001 258,995 263,986l248,-380C517,625 526,643 537,662l218,320C762,991 768,999 775,1005C782,1010 790,1013 800,1013l164,0l-341,-484l355,-529l-171,0C792,0 781,4 773,12C764,19 757,28 752,37l-255,397C492,415 485,397 476,382l-236,-345C233,28 226,19 219,12C211,4 200,0 187,0l-159,0z" unicode="x" id="glyph2592"></glyph><glyph d="M443,-299C437,-312 430,-323 421,-331C412,-339 398,-343 379,-343l-132,0l185,402l-418,954l154,0C183,1013 195,1009 204,1002C213,994 219,985 223,976l271,-638C500,323 505,309 510,294C514,279 518,264 521,249C526,264 530,279 535,294C540,309 545,324 551,339l263,637C818,987 825,996 835,1003C844,1010 855,1013 866,1013l142,0z" unicode="y" id="glyph2594"></glyph><glyph d="M853,937C853,924 851,912 846,901C841,889 835,878 828,869l-548,-730l553,0l0,-139l-763,0l0,74C70,83 72,93 77,105C81,116 87,127 95,138l551,735l-545,0l0,140l752,0z" unicode="z" id="glyph2596"></glyph><glyph d="M181,425C181,467 169,502 146,529C123,556 89,569 44,569l0,107C89,676 123,689 146,716C169,743 181,777 181,820C181,853 178,886 173,919C168,952 162,984 156,1017C149,1050 143,1083 138,1116C133,1149 130,1183 130,1218C130,1264 137,1306 151,1345C164,1384 185,1417 213,1445C240,1473 275,1495 316,1510C357,1525 404,1533 459,1533l53,0l0,-79C512,1441 507,1431 498,1425C489,1419 480,1416 472,1416l-20,0C401,1416 360,1399 331,1366C301,1332 286,1286 286,1229C286,1192 288,1156 293,1121C298,1086 303,1053 309,1020C315,987 320,954 325,921C330,888 332,855 332,822C332,797 328,773 321,752C314,730 303,711 290,694C276,677 260,662 242,650C223,637 203,628 181,622C203,616 223,607 242,595C260,582 276,567 290,550C303,533 314,513 321,492C328,471 332,448 332,423C332,390 330,357 325,324C320,291 315,259 309,226C303,193 298,159 293,124C288,89 286,53 286,16C286,-42 301,-88 331,-121C360,-154 401,-171 452,-171l20,0C480,-171 489,-174 498,-180C507,-186 512,-196 512,-209l0,-80l-53,0C404,-289 357,-281 316,-265C275,-250 240,-228 213,-200C185,-172 164,-139 151,-100C137,-61 130,-19 130,27C130,62 133,96 138,129C143,162 149,195 156,228C162,261 168,293 173,326C178,359 181,392 181,425z" unicode="{" id="glyph2598"></glyph><glyph d="M230,1533l138,0l0,-1876l-138,0z" unicode="|" id="glyph2600"></glyph><glyph d="M419,425C419,392 422,359 427,326C432,293 438,261 445,228C451,195 457,162 462,129C467,96 470,62 470,27C470,-19 463,-61 449,-100C435,-139 414,-172 387,-200C360,-228 326,-250 285,-265C244,-281 196,-289 141,-289l-53,0l0,80C88,-196 93,-186 102,-180C111,-174 120,-171 128,-171l20,0C199,-171 240,-154 270,-121C299,-88 314,-42 314,16C314,53 312,89 307,124C302,159 297,193 291,226C285,259 280,291 275,324C270,357 268,390 268,423C268,448 272,471 279,492C286,513 297,533 311,550C324,567 340,582 359,595C377,607 397,616 419,622C397,628 377,637 359,650C340,662 324,677 311,694C297,711 286,730 279,752C272,773 268,797 268,822C268,855 270,888 275,921C280,954 285,987 291,1020C297,1053 302,1086 307,1121C312,1156 314,1192 314,1229C314,1286 299,1332 270,1366C240,1399 199,1416 148,1416l-20,0C120,1416 111,1419 102,1425C93,1431 88,1441 88,1454l0,79l53,0C196,1533 244,1525 285,1510C326,1495 360,1473 387,1445C414,1417 435,1384 449,1345C463,1306 470,1264 470,1218C470,1183 467,1149 462,1116C457,1083 451,1050 445,1017C438,984 432,952 427,919C422,886 419,853 419,820C419,777 431,743 454,716C477,689 511,676 556,676l0,-107C511,569 477,556 454,529C431,502 419,467 419,425z" unicode="}" id="glyph2602"></glyph><glyph d="M759,613C802,613 836,627 861,656C885,684 897,721 898,768l144,0C1042,723 1036,682 1024,645C1011,608 994,576 971,549C948,522 919,502 885,487C851,472 813,465 770,465C735,465 701,470 667,481C633,492 600,504 569,517C537,530 507,542 478,553C449,564 423,569 399,569C356,569 322,555 298,527C273,499 261,461 260,414l-144,0C116,459 122,500 135,537C147,574 165,606 188,633C211,660 239,681 273,696C306,711 345,718 388,718C423,718 457,713 491,702C525,691 558,679 590,666C621,653 651,641 680,630C709,619 735,613 759,613z" unicode="~" id="glyph2604"></glyph><glyph id="glyph2606"></glyph><glyph d="M262,-343l0,541C262,228 263,257 264,286C265,314 266,343 268,372C270,401 273,430 276,461C279,492 282,524 286,559l121,0C411,524 415,492 418,461C421,430 423,401 425,372C427,343 429,314 430,286C431,257 431,228 431,198l0,-541M218,904C218,922 221,939 228,954C234,969 243,982 254,993C265,1004 279,1013 294,1020C309,1026 325,1029 343,1029C360,1029 377,1026 392,1020C407,1013 420,1004 431,993C442,982 451,969 458,954C465,939 468,922 468,904C468,887 465,870 458,855C451,840 442,826 431,815C420,804 407,795 392,788C377,781 360,778 343,778C325,778 309,781 294,788C279,795 265,804 254,815C243,826 234,840 228,855C221,870 218,887 218,904z" unicode="¡" id="glyph2608"></glyph><glyph d="M561,-11C500,-4 443,12 392,39C340,65 295,100 258,144C220,188 191,240 170,301C149,362 138,430 138,506C138,580 149,648 171,711C193,773 225,827 267,873C309,919 361,956 422,983C483,1010 554,1024 633,1026l12,179C646,1218 652,1230 661,1240C670,1249 681,1254 695,1254l66,0l-16,-233C800,1013 849,999 893,978C937,957 977,930 1013,897l-46,-62C962,828 957,822 952,819C947,815 939,813 930,813C922,813 913,816 902,822C891,827 878,834 863,842C848,850 830,858 809,866C788,874 763,880 735,885l-52,-762C725,126 760,132 789,143C817,153 841,164 861,175C880,186 896,197 909,206C922,215 933,220 944,220C951,220 958,219 964,216C970,213 975,209 978,204l48,-63C986,93 935,57 874,32C812,7 745,-7 674,-12l-12,-175C661,-200 656,-211 647,-220C638,-230 626,-235 612,-235l-66,0M315,506C315,398 338,312 383,248C428,184 490,144 571,129l52,760C572,885 528,874 490,855C451,836 419,810 393,777C367,744 348,704 335,659C322,614 315,563 315,506z" unicode="¢" id="glyph2610"></glyph><glyph d="M52,672C52,689 57,704 68,716C79,728 94,734 113,734l134,0l0,261C247,1058 256,1117 274,1172C292,1227 319,1275 356,1316C393,1357 438,1389 493,1413C548,1436 612,1448 685,1448C737,1448 783,1442 824,1429C864,1416 900,1398 931,1375C962,1352 990,1326 1013,1296C1036,1266 1055,1234 1071,1199l-72,-46C992,1149 986,1146 979,1145C972,1143 965,1142 958,1142C949,1142 940,1144 932,1148C923,1151 915,1158 908,1167C895,1184 881,1200 868,1216C854,1231 839,1245 822,1257C805,1268 785,1278 763,1285C741,1292 715,1295 685,1295C643,1295 606,1288 574,1274C542,1260 515,1240 494,1214C473,1188 457,1157 446,1120C435,1083 430,1042 430,997l0,-263l441,0l0,-72C871,650 866,639 856,629C846,619 834,614 819,614l-389,0l0,-243C430,321 421,278 402,242C383,205 356,172 323,142C342,145 362,148 381,151C400,153 419,154 439,154l676,0l0,-76C1115,69 1113,60 1110,51C1106,42 1101,33 1094,26C1087,18 1079,12 1070,7C1061,2 1050,0 1038,0l-964,0l0,115C97,122 118,131 139,142C160,153 178,168 194,185C210,202 223,222 233,245C242,268 247,294 247,325l0,289l-195,0z" unicode="£" id="glyph2612"></glyph><glyph d="M223,672C223,710 229,746 240,780C251,813 266,845 285,874l-153,153l91,90l151,-152C403,986 435,1002 470,1013C505,1024 541,1030 580,1030C618,1030 654,1025 688,1014C722,1003 753,987 782,967l153,153l89,-91l-151,-152C894,848 910,816 921,782C932,747 938,711 938,672C938,634 933,598 922,564C911,530 895,499 876,470l152,-151l-91,-92l-152,152C756,359 724,343 689,332C654,321 618,315 580,315C542,315 506,321 473,332C439,343 407,358 378,377l-153,-153l-89,91l151,152C267,496 251,528 240,563C229,597 223,633 223,672M355,672C355,641 361,613 373,586C384,559 400,535 421,515C442,494 466,478 493,466C520,454 549,448 580,448C611,448 641,454 669,466C696,478 720,494 741,515C761,535 777,559 789,586C801,613 807,641 807,672C807,703 801,733 789,760C777,787 761,811 741,832C720,853 696,869 669,881C641,892 611,898 580,898C549,898 520,892 493,881C466,869 442,853 421,832C400,811 384,787 373,760C361,733 355,703 355,672z" unicode="¤" id="glyph2614"></glyph><glyph d="M146,625l306,0l-408,808l149,0C210,1433 224,1429 235,1421C245,1412 253,1401 260,1388l276,-566C545,799 553,777 560,758C567,739 572,719 577,700C582,719 587,739 593,759C599,778 607,799 616,822l275,566C896,1399 905,1410 916,1419C927,1428 940,1433 957,1433l150,0l-409,-808l307,0l0,-102l-340,0l0,-105l340,0l0,-103l-340,0l0,-315l-179,0l0,315l-340,0l0,103l340,0l0,105l-340,0z" unicode="¥" id="glyph2616"></glyph><glyph d="M230,1533l138,0l0,-794l-138,0M230,452l138,0l0,-795l-138,0z" unicode="¦" id="glyph2618"></glyph><glyph d="M817,1265C809,1250 797,1243 780,1243C770,1243 759,1247 746,1254C733,1261 718,1270 700,1279C681,1288 659,1296 634,1304C609,1311 579,1315 544,1315C512,1315 483,1311 458,1303C432,1294 410,1283 393,1269C375,1255 361,1239 352,1220C343,1201 338,1182 338,1161C338,1136 346,1114 363,1095C379,1076 400,1058 427,1043C453,1027 483,1012 517,998C551,983 586,968 621,953C656,938 690,921 724,903C758,884 788,863 815,840C841,816 862,789 879,758C895,727 903,692 903,651C903,597 890,549 864,507C838,464 797,430 741,405C774,380 800,352 821,319C842,286 852,247 852,201C852,154 844,111 827,72C810,32 786,-2 754,-31C721,-60 681,-83 634,-100C586,-117 531,-125 470,-125C399,-125 335,-113 278,-90C221,-67 172,-38 132,-2l41,68C178,75 185,81 193,86C200,91 210,93 221,93C233,93 246,88 259,79C272,70 289,59 308,48C327,36 351,25 380,16C408,7 443,2 485,2C518,2 548,6 575,15C601,23 623,35 641,50C659,65 673,82 682,103C691,124 696,147 696,172C696,202 688,228 671,250C654,272 632,292 605,309C578,326 547,341 512,355C477,369 442,383 405,398C368,413 333,429 298,446C263,463 232,483 205,506C178,529 156,557 139,588C122,619 114,655 114,698C114,750 128,797 157,839C186,880 231,913 293,936C260,961 233,992 212,1027C191,1062 180,1104 180,1154C180,1193 188,1230 204,1266C220,1301 243,1332 274,1359C305,1386 342,1407 387,1423C432,1439 483,1447 540,1447C607,1447 667,1437 720,1416C773,1395 818,1367 857,1330M272,726C272,692 284,663 307,640C330,616 360,595 397,576C433,557 473,538 517,521C561,503 604,484 645,463C681,480 707,502 723,527C739,552 747,580 747,611C747,635 742,656 732,675C722,694 708,711 691,726C674,741 653,755 630,768C607,781 582,793 556,805C529,816 502,828 474,840C446,851 419,864 392,877C348,857 317,835 299,811C281,786 272,758 272,726z" unicode="§" id="glyph2620"></glyph><glyph d="M239,1289C239,1274 236,1259 230,1246C224,1233 216,1221 205,1211C194,1201 182,1193 169,1187C155,1181 140,1178 125,1178C110,1178 96,1181 83,1187C70,1193 58,1201 48,1211C37,1221 29,1233 23,1246C17,1259 14,1274 14,1289C14,1304 17,1319 23,1333C29,1347 37,1359 48,1370C58,1380 70,1388 83,1394C96,1400 110,1403 125,1403C140,1403 155,1400 169,1394C182,1388 194,1380 205,1370C216,1359 224,1347 230,1333C236,1319 239,1304 239,1289M598,1289C598,1274 595,1259 589,1246C583,1233 575,1221 565,1211C554,1201 542,1193 529,1187C515,1181 500,1178 485,1178C470,1178 455,1181 442,1187C428,1193 416,1201 406,1211C396,1221 388,1233 382,1246C376,1259 373,1274 373,1289C373,1304 376,1319 382,1333C388,1347 396,1359 406,1370C416,1380 428,1388 442,1394C455,1400 470,1403 485,1403C500,1403 515,1400 529,1394C542,1388 554,1380 565,1370C575,1359 583,1347 589,1333C595,1319 598,1304 598,1289z" unicode="¨" id="glyph2622"></glyph><glyph d="M1030,463C1035,466 1040,469 1044,472C1047,474 1051,475 1055,475C1062,475 1067,474 1070,472C1073,470 1076,467 1080,463l61,-64C1103,355 1056,321 1001,297C946,272 879,260 802,260C737,260 677,271 624,294C570,317 524,348 486,389C447,430 418,478 397,534C376,590 365,651 365,718C365,785 377,847 400,904C423,960 454,1008 495,1049C536,1089 584,1120 640,1143C695,1165 756,1176 821,1176C893,1176 954,1165 1005,1142C1056,1119 1100,1090 1138,1053l-46,-65C1089,984 1084,980 1079,976C1074,972 1067,970 1059,970C1050,970 1040,974 1030,981C1019,988 1006,997 989,1006C972,1015 951,1023 926,1031C901,1038 868,1042 829,1042C782,1042 740,1035 703,1020C665,1005 633,983 607,955C580,927 560,893 546,853C531,813 524,768 524,718C524,667 531,621 546,581C560,540 580,506 605,479C630,452 661,431 696,417C731,402 770,395 811,395C843,395 870,397 892,401C914,405 933,410 949,417C965,424 979,431 992,439C1004,447 1017,455 1030,463M68,716C68,783 77,848 94,911C111,973 136,1031 168,1086C199,1140 237,1189 282,1234C327,1278 376,1316 430,1348C484,1380 542,1405 604,1422C666,1439 731,1448 798,1448C865,1448 930,1439 993,1422C1055,1405 1113,1380 1167,1348C1221,1316 1270,1278 1315,1234C1360,1189 1398,1140 1430,1086C1461,1031 1486,973 1503,911C1520,848 1529,783 1529,716C1529,649 1520,585 1503,523C1486,460 1461,402 1430,348C1398,294 1360,245 1315,201C1270,156 1221,118 1167,86C1113,54 1055,29 993,12C930,-5 865,-14 798,-14C731,-14 666,-5 604,12C542,29 484,54 430,86C376,118 327,156 282,201C237,245 199,294 168,348C136,402 111,460 94,522C77,584 68,649 68,716M168,716C168,657 175,600 190,545C205,490 226,439 253,392C280,344 313,301 351,262C389,223 431,190 478,163C525,135 575,114 629,99C683,84 739,76 798,76C886,76 969,93 1046,126C1123,159 1190,205 1247,263C1304,320 1349,388 1382,466C1415,543 1431,627 1431,716C1431,775 1424,833 1409,888C1394,943 1372,995 1345,1043C1318,1090 1285,1134 1247,1173C1208,1212 1166,1246 1119,1274C1072,1301 1022,1323 968,1338C913,1353 857,1361 798,1361C710,1361 628,1344 551,1311C474,1277 408,1231 351,1173C294,1114 250,1046 217,968C184,889 168,805 168,716z" unicode="©" id="glyph2624"></glyph><glyph d="M596,840l-60,0C524,840 515,842 509,846C503,849 497,857 492,869l-12,49C464,904 448,892 433,881C418,870 402,861 385,854C368,846 351,840 332,837C313,833 293,831 270,831C245,831 221,834 200,841C178,848 159,858 143,872C127,885 115,902 106,922C97,942 92,966 92,993C92,1016 98,1038 111,1061C124,1083 145,1103 174,1121C203,1138 242,1153 291,1165C339,1176 399,1183 470,1184l0,37C470,1263 460,1294 441,1314C422,1334 393,1344 355,1344C330,1344 309,1341 292,1335C275,1329 261,1323 249,1316C236,1309 225,1302 216,1297C206,1291 196,1288 185,1288C176,1288 168,1291 161,1296C154,1301 149,1306 146,1313l-22,42C159,1388 196,1412 237,1427C277,1442 321,1450 370,1450C406,1450 438,1444 466,1433C494,1422 518,1406 537,1386C556,1366 571,1342 581,1314C591,1286 596,1255 596,1221M309,923C343,923 372,929 397,942C422,955 446,973 470,996l0,105C423,1100 384,1096 352,1091C319,1085 293,1078 273,1069C253,1060 239,1049 230,1038C221,1026 217,1013 217,999C217,971 226,951 243,940C260,929 282,923 309,923z" unicode="ª" id="glyph2626"></glyph><glyph d="M138,518l0,23l249,389l58,-28C454,897 461,891 466,884C471,877 473,869 473,860C473,849 470,838 463,827l-159,-261C295,550 285,538 276,529C286,520 295,508 304,493l159,-261C466,227 469,221 471,215C472,209 473,203 473,198C473,179 464,166 445,157l-58,-28M434,518l0,23l249,389l58,-28C750,897 757,891 762,884C767,877 769,869 769,860C769,849 766,838 759,827l-159,-261C591,550 581,538 572,529C582,520 591,508 600,493l159,-261C762,227 765,221 767,215C768,209 769,203 769,198C769,179 760,166 741,157l-58,-28z" unicode="«" id="glyph2628"></glyph><glyph d="M148,739l860,0l0,-424l-151,0l0,289l-709,0z" unicode="¬" id="glyph2630"></glyph><glyph d="M100,675l494,0l0,-151l-494,0z" unicode="­" id="glyph2632"></glyph><glyph d="M68,716C68,783 77,848 94,911C111,973 136,1031 168,1086C199,1140 237,1189 282,1234C327,1278 376,1316 430,1348C484,1380 542,1405 604,1422C666,1439 731,1448 798,1448C865,1448 930,1439 993,1422C1055,1405 1113,1380 1167,1348C1221,1316 1270,1278 1315,1234C1360,1189 1398,1140 1430,1086C1461,1031 1486,973 1503,911C1520,848 1529,783 1529,716C1529,649 1520,585 1503,523C1486,460 1461,402 1430,348C1398,294 1360,245 1315,201C1270,156 1221,118 1167,86C1113,54 1055,29 993,12C930,-5 865,-14 798,-14C731,-14 666,-5 604,12C542,29 484,54 430,86C376,118 327,156 282,201C237,245 199,294 168,348C136,402 111,460 94,522C77,584 68,649 68,716M168,716C168,657 175,600 190,545C205,490 226,439 253,392C280,344 313,301 351,262C389,223 431,190 478,163C525,135 575,114 629,99C683,84 739,76 798,76C886,76 969,93 1046,126C1123,159 1190,205 1247,263C1304,320 1349,388 1382,466C1415,543 1431,627 1431,716C1431,775 1424,833 1409,888C1394,943 1372,995 1345,1043C1318,1090 1285,1134 1247,1173C1208,1212 1166,1246 1119,1274C1072,1301 1022,1323 968,1338C913,1353 857,1361 798,1361C710,1361 628,1344 551,1311C474,1277 408,1231 351,1173C294,1114 250,1046 217,968C184,889 168,805 168,716M654,626l0,-354l-156,0l0,892l288,0C901,1164 986,1143 1041,1102C1096,1060 1124,998 1124,917C1124,854 1106,801 1071,757C1035,713 982,683 911,666C922,659 932,651 941,641C949,631 957,619 964,606l228,-334l-148,0C1022,272 1006,280 995,297l-201,302C788,608 781,614 773,619C764,624 751,626 734,626M654,740l116,0C807,740 838,744 864,751C889,758 910,768 926,781C941,794 953,811 960,830C967,849 970,872 970,897C970,922 967,943 961,962C954,981 944,996 930,1008C915,1020 896,1029 873,1035C850,1041 821,1044 786,1044l-132,0z" unicode="®" id="glyph2634"></glyph><glyph d="M20,1348l574,0l0,-117l-574,0z" unicode="¯" id="glyph2636"></glyph><glyph d="M70,1128C70,1173 78,1215 95,1254C112,1293 135,1328 164,1357C193,1386 228,1408 268,1425C307,1442 350,1450 396,1450C442,1450 485,1442 525,1425C564,1408 599,1386 628,1357C657,1328 680,1293 697,1254C714,1215 722,1173 722,1128C722,1084 714,1043 697,1004C680,965 657,931 628,902C599,873 564,850 525,833C485,816 442,807 396,807C350,807 307,816 268,833C228,850 193,873 164,902C135,931 112,965 95,1004C78,1043 70,1084 70,1128M197,1127C197,1099 202,1073 212,1049C222,1024 236,1003 254,985C272,967 293,953 318,943C342,932 368,927 396,927C424,927 450,932 474,943C498,953 519,967 537,985C555,1003 569,1024 579,1049C589,1073 594,1099 594,1127C594,1155 589,1181 579,1206C569,1231 555,1252 537,1271C519,1289 498,1303 474,1314C450,1324 424,1329 396,1329C368,1329 342,1324 318,1314C293,1303 272,1289 254,1271C236,1252 222,1231 212,1206C202,1181 197,1155 197,1127z" unicode="°" id="glyph2638"></glyph><glyph d="M651,1202l0,-376l407,0l0,-136l-407,0l0,-368l-146,0l0,368l-405,0l0,136l405,0l0,376M100,215l958,0l0,-135l-958,0z" unicode="±" id="glyph2640"></glyph><glyph d="M346,1637C381,1637 412,1632 441,1622C469,1612 493,1598 513,1580C533,1562 549,1540 560,1515C571,1489 576,1460 576,1429C576,1402 572,1378 564,1355C555,1332 544,1310 530,1289C516,1268 500,1248 482,1229C464,1210 445,1190 425,1170l-162,-165C278,1009 294,1012 310,1015C325,1018 340,1019 354,1019l195,0C563,1019 574,1015 582,1008C589,1001 593,990 593,977l0,-77l-511,0l0,43C82,952 84,961 87,970C90,979 96,988 104,996l221,219C342,1232 357,1249 372,1266C387,1283 399,1301 410,1319C421,1336 429,1354 436,1372C442,1389 445,1407 445,1425C445,1459 435,1485 415,1504C395,1522 370,1531 340,1531C309,1531 285,1523 266,1507C247,1491 232,1469 223,1441C218,1432 212,1424 206,1419C199,1414 190,1411 179,1411C176,1411 174,1411 171,1412C168,1412 164,1412 161,1413l-71,12C100,1496 128,1549 174,1584C220,1619 277,1637 346,1637z" unicode="²" id="glyph2642"></glyph><glyph d="M354,1637C388,1637 419,1632 446,1623C473,1613 497,1600 517,1583C536,1566 551,1546 562,1523C573,1500 578,1476 578,1449C578,1364 538,1306 459,1276C503,1263 537,1244 560,1218C583,1192 594,1158 594,1117C594,1080 587,1048 573,1020C559,992 541,969 518,950C495,931 468,916 438,907C407,897 376,892 344,892C306,892 273,896 245,905C217,913 193,925 173,942C152,958 135,978 121,1002C106,1026 94,1054 84,1085l55,24C149,1113 159,1115 168,1115C187,1115 201,1107 208,1092C212,1083 217,1074 223,1063C229,1052 237,1042 247,1033C257,1024 269,1016 284,1010C298,1003 316,1000 337,1000C358,1000 376,1003 392,1010C407,1017 420,1025 431,1036C442,1046 450,1058 455,1071C460,1084 463,1098 463,1112C463,1132 460,1149 455,1164C449,1178 440,1190 427,1199C414,1208 396,1215 375,1220C353,1225 326,1227 295,1227l0,87C353,1315 394,1325 418,1345C441,1365 453,1392 453,1427C453,1460 443,1486 424,1503C405,1520 379,1529 347,1529C315,1529 290,1521 271,1506C252,1490 238,1469 230,1442C225,1431 219,1424 214,1419C208,1414 200,1411 190,1411C187,1411 185,1411 182,1412C179,1412 175,1412 172,1413l-67,12C110,1460 119,1491 134,1518C149,1544 167,1566 189,1584C210,1601 235,1615 263,1624C291,1633 321,1637 354,1637z" unicode="³" id="glyph2644"></glyph><glyph d="M597,1449l-233,-258C355,1181 346,1174 337,1170C328,1165 316,1163 302,1163l-106,0l148,242C353,1420 364,1432 375,1439C386,1446 402,1449 423,1449z" unicode="´" id="glyph2646"></glyph><glyph d="M300,1013l0,-658C300,282 318,226 354,186C390,146 443,126 513,126C565,126 614,138 660,163C706,188 748,222 787,266l0,747l178,0l0,-1013l-106,0C834,0 818,12 811,37l-14,109C752,98 707,63 660,40C613,17 560,6 502,6C453,6 409,15 372,32C335,49 303,72 277,103C282,75 285,47 287,18C289,-11 290,-39 290,-64l0,-279l-89,0C176,-343 156,-336 143,-323C129,-310 122,-291 122,-267l0,1280z" unicode="µ" id="glyph2648"></glyph><glyph d="M1302,1433l0,-153l-219,0l0,-1481l-157,0l0,1481l-277,0l0,-1481l-157,0l0,861C423,660 360,670 305,691C250,711 203,739 164,774C125,809 95,850 74,897C53,944 42,995 42,1049C42,1106 53,1159 74,1206C95,1253 125,1293 164,1327C203,1360 250,1386 305,1405C360,1424 423,1433 492,1433z" unicode="¶" id="glyph2650"></glyph><glyph d="M124,593C124,614 128,633 136,652C143,671 154,687 168,700C181,713 197,724 215,732C233,740 252,744 272,744C293,744 312,740 331,732C350,724 366,713 379,700C392,687 403,671 411,652C419,633 423,614 423,593C423,573 419,554 411,536C403,518 392,502 379,489C366,475 350,464 331,457C312,449 293,445 272,445C252,445 233,449 215,457C197,464 181,475 168,489C154,502 143,518 136,536C128,554 124,573 124,593z" unicode="·" id="glyph2652"></glyph><glyph d="M172,-247C176,-247 181,-248 186,-250C191,-253 198,-255 205,-258C212,-261 221,-264 232,-266C243,-269 255,-270 269,-270C297,-270 318,-264 333,-253C347,-242 354,-228 354,-211C354,-198 350,-188 343,-179C336,-170 325,-163 312,-157C298,-151 281,-146 261,-142C241,-138 218,-134 193,-131l43,141l112,0l-24,-80C384,-83 428,-101 455,-124C482,-147 495,-177 495,-213C495,-234 490,-253 479,-270C468,-287 454,-302 435,-314C416,-326 393,-335 366,-341C339,-348 310,-351 278,-351C251,-351 225,-348 200,-342C175,-337 153,-329 132,-320l17,55C153,-253 161,-247 172,-247z" unicode="¸" id="glyph2654"></glyph><glyph d="M173,985l147,0l0,440l4,43l-107,-88C209,1374 200,1371 191,1371C176,1371 165,1376 159,1385l-39,56l222,190l108,0l0,-646l130,0l0,-85l-407,0z" unicode="¹" id="glyph2656"></glyph><glyph d="M382,1449C429,1449 471,1442 509,1428C546,1413 578,1393 605,1366C632,1339 652,1307 667,1269C682,1230 689,1187 689,1140C689,1092 682,1049 667,1010C652,971 632,939 605,912C578,885 546,864 509,850C471,835 429,828 382,828C335,828 292,835 254,850C216,864 184,885 157,912C130,939 109,971 94,1010C79,1049 72,1092 72,1140C72,1187 79,1230 94,1269C109,1307 130,1339 157,1366C184,1393 216,1413 254,1428C292,1442 335,1449 382,1449M382,934C438,934 480,952 508,987C535,1022 549,1072 549,1139C549,1206 535,1256 508,1291C480,1326 438,1343 382,1343C324,1343 281,1326 254,1291C226,1256 212,1206 212,1139C212,1072 226,1022 254,987C281,952 324,934 382,934z" unicode="º" id="glyph2658"></glyph><glyph d="M236,129l-58,28C159,166 150,179 150,198C150,209 153,221 160,232l159,261C328,509 337,521 346,529C338,536 329,549 319,566l-159,261C153,838 150,850 150,861C150,880 159,893 178,902l58,28l249,-389l0,-23M781,541l0,-23l-249,-389l-58,28C455,166 446,179 446,198C446,209 449,221 456,232l159,261C624,509 633,521 642,529C634,536 625,549 615,566l-159,261C449,838 446,850 446,861C446,880 455,893 474,902l58,28z" unicode="»" id="glyph2660"></glyph><glyph d="M1295,267l109,0l0,-65C1404,195 1402,189 1397,184C1392,179 1386,176 1377,176l-82,0l0,-176l-109,0l0,176l-306,0C868,176 859,179 852,184C845,189 840,196 839,204l-10,57l342,468l124,0M155,788l147,0l0,440l4,43l-107,-88C191,1177 182,1174 173,1174C158,1174 147,1179 141,1188l-39,56l222,190l108,0l0,-646l130,0l0,-85l-407,0M1186,508C1186,521 1186,534 1187,549C1188,564 1189,579 1191,594l-241,-327l236,0M434,53C421,32 408,18 393,11C378,4 361,0 342,0l-76,0l818,1372C1096,1391 1110,1406 1125,1417C1140,1428 1159,1433 1180,1433l77,0z" unicode="¼" id="glyph2662"></glyph><glyph d="M1126,737C1161,737 1192,732 1221,722C1249,712 1273,698 1293,680C1313,662 1329,640 1340,615C1351,589 1356,560 1356,529C1356,502 1352,478 1344,455C1335,432 1324,410 1310,389C1296,368 1280,348 1262,329C1244,310 1225,290 1205,270l-162,-165C1058,109 1074,112 1090,115C1105,118 1120,119 1134,119l195,0C1343,119 1354,115 1362,108C1369,101 1373,90 1373,77l0,-77l-511,0l0,43C862,52 864,61 867,70C870,79 876,88 884,96l221,219C1122,332 1137,349 1152,366C1167,383 1179,401 1190,419C1201,436 1209,454 1216,472C1222,489 1225,507 1225,525C1225,559 1215,585 1195,604C1175,622 1150,631 1120,631C1089,631 1065,623 1046,607C1027,591 1012,569 1003,541C998,532 992,524 986,519C979,514 970,511 959,511C956,511 954,511 951,512C948,512 944,512 941,513l-71,12C880,596 908,649 954,684C1000,719 1057,737 1126,737M155,788l147,0l0,440l4,43l-107,-88C191,1177 182,1174 173,1174C158,1174 147,1179 141,1188l-39,56l222,190l108,0l0,-646l130,0l0,-85l-407,0M390,53C377,32 364,18 349,11C334,4 317,0 298,0l-76,0l818,1372C1052,1391 1066,1406 1081,1417C1096,1428 1115,1433 1136,1433l77,0z" unicode="½" id="glyph2664"></glyph><glyph d="M1296,267l109,0l0,-65C1405,195 1403,189 1398,184C1393,179 1387,176 1378,176l-82,0l0,-176l-109,0l0,176l-306,0C869,176 860,179 853,184C846,189 841,196 840,204l-10,57l342,468l124,0M338,1440C372,1440 403,1435 430,1426C457,1416 481,1403 501,1386C520,1369 535,1349 546,1326C557,1303 562,1279 562,1252C562,1167 522,1109 443,1079C487,1066 521,1047 544,1021C567,995 578,961 578,920C578,883 571,851 557,823C543,795 525,772 502,753C479,734 452,719 422,710C391,700 360,695 328,695C290,695 257,699 229,708C201,716 177,728 157,745C136,761 119,781 105,805C90,829 78,857 68,888l55,24C133,916 143,918 152,918C171,918 185,910 192,895C196,886 201,877 207,866C213,855 221,845 231,836C241,827 253,819 268,813C282,806 300,803 321,803C342,803 360,806 376,813C391,820 404,828 415,839C426,849 434,861 439,874C444,887 447,901 447,915C447,935 444,952 439,967C433,981 424,993 411,1002C398,1011 380,1018 359,1023C337,1028 310,1030 279,1030l0,87C337,1118 378,1128 402,1148C425,1168 437,1195 437,1230C437,1263 427,1289 408,1306C389,1323 363,1332 331,1332C299,1332 274,1324 255,1309C236,1293 222,1272 214,1245C209,1234 203,1227 198,1222C192,1217 184,1214 174,1214C171,1214 169,1214 166,1215C163,1215 159,1215 156,1216l-67,12C94,1263 103,1294 118,1321C133,1347 151,1369 173,1387C194,1404 219,1418 247,1427C275,1436 305,1440 338,1440M1187,508C1187,521 1187,534 1188,549C1189,564 1190,579 1192,594l-241,-327l236,0M439,53C426,32 413,18 398,11C383,4 366,0 347,0l-76,0l818,1372C1101,1391 1115,1406 1130,1417C1145,1428 1164,1433 1185,1433l77,0z" unicode="¾" id="glyph2666"></glyph><glyph d="M770,-212C749,-231 727,-250 702,-267C677,-284 649,-300 620,-313C591,-326 559,-337 524,-344C489,-352 452,-356 412,-356C359,-356 311,-349 266,-334C221,-319 182,-298 149,-271C116,-244 91,-210 72,-171C53,-132 44,-87 44,-37C44,14 52,57 67,92C82,127 101,158 124,183C147,208 172,230 199,248C226,266 252,283 276,299C299,315 320,331 337,348C354,364 363,383 366,405l18,154l122,0l12,-167l0,-12C518,351 511,326 496,305C481,284 462,266 439,249C416,232 391,216 365,201C338,185 314,167 291,147C268,127 249,104 234,77C219,50 211,17 211,-22C211,-51 217,-77 228,-100C239,-123 255,-143 274,-159C293,-176 316,-188 343,-197C369,-206 397,-210 427,-210C468,-210 503,-205 532,-195C561,-185 585,-174 605,-162C625,-150 641,-139 654,-129C667,-119 677,-114 685,-114C694,-114 702,-116 708,-120C713,-124 718,-130 723,-137M324,903C324,920 327,937 334,952C340,967 349,981 360,992C371,1003 384,1012 399,1019C414,1026 431,1029 448,1029C465,1029 482,1026 497,1019C512,1012 526,1003 537,992C548,981 557,967 564,952C570,937 573,920 573,903C573,885 570,869 564,854C557,839 548,825 537,814C526,803 512,794 497,788C482,781 465,778 448,778C431,778 414,781 399,788C384,794 371,803 360,814C349,825 340,839 334,854C327,869 324,885 324,903z" unicode="¿" id="glyph2668"></glyph><glyph d="M1353,0l-150,0C1186,0 1172,4 1161,13C1150,22 1142,33 1137,46l-134,346l-643,0l-134,-346C221,34 213,23 202,14C191,5 177,0 160,0l-150,0l573,1433l197,0M414,532l535,0l-225,583C709,1151 695,1196 681,1250C674,1223 667,1198 660,1175C653,1152 646,1131 639,1114M520,1782C541,1782 557,1780 568,1776C579,1771 591,1762 604,1749l211,-203l-139,0C662,1546 651,1547 643,1550C635,1552 625,1557 614,1565l-295,217z" unicode="À" id="glyph2670"></glyph><glyph d="M1353,0l-150,0C1186,0 1172,4 1161,13C1150,22 1142,33 1137,46l-134,346l-643,0l-134,-346C221,34 213,23 202,14C191,5 177,0 160,0l-150,0l573,1433l197,0M414,532l535,0l-225,583C709,1151 695,1196 681,1250C674,1223 667,1198 660,1175C653,1152 646,1131 639,1114M1021,1782l-294,-216C716,1558 706,1553 697,1550C688,1547 677,1546 663,1546l-138,0l211,203C743,1756 749,1761 755,1765C760,1769 766,1772 772,1775C778,1778 785,1780 792,1781C799,1782 809,1782 820,1782z" unicode="Á" id="glyph2672"></glyph><glyph d="M1353,0l-150,0C1186,0 1172,4 1161,13C1150,22 1142,33 1137,46l-134,346l-643,0l-134,-346C221,34 213,23 202,14C191,5 177,0 160,0l-150,0l573,1433l197,0M414,532l535,0l-225,583C709,1151 695,1196 681,1250C674,1223 667,1198 660,1175C653,1152 646,1131 639,1114M1006,1546l-135,0C863,1546 854,1547 845,1550C836,1552 828,1555 822,1559l-130,95C687,1657 683,1659 680,1662C675,1658 671,1655 668,1654l-130,-95C532,1555 524,1552 515,1550C506,1547 497,1546 489,1546l-135,0l238,210l176,0z" unicode="Â" id="glyph2674"></glyph><glyph d="M1353,0l-150,0C1186,0 1172,4 1161,13C1150,22 1142,33 1137,46l-134,346l-643,0l-134,-346C221,34 213,23 202,14C191,5 177,0 160,0l-150,0l573,1433l197,0M414,532l535,0l-225,583C709,1151 695,1196 681,1250C674,1223 667,1198 660,1175C653,1152 646,1131 639,1114M801,1663C824,1663 842,1670 855,1684C867,1697 873,1716 874,1741l98,0C972,1712 968,1686 961,1662C954,1638 943,1617 929,1600C915,1582 898,1568 877,1559C856,1549 833,1544 806,1544C783,1544 760,1548 739,1557C718,1566 697,1575 678,1586C658,1596 639,1605 622,1614C605,1623 588,1627 572,1627C549,1627 532,1620 520,1606C507,1591 501,1572 500,1548l-100,0C400,1577 404,1603 412,1628C419,1652 430,1673 445,1690C459,1707 477,1721 498,1731C519,1741 542,1746 568,1746C591,1746 614,1742 635,1733C656,1724 677,1715 696,1705C715,1694 734,1685 751,1676C768,1667 785,1663 801,1663z" unicode="Ã" id="glyph2676"></glyph><glyph d="M1353,0l-150,0C1186,0 1172,4 1161,13C1150,22 1142,33 1137,46l-134,346l-643,0l-134,-346C221,34 213,23 202,14C191,5 177,0 160,0l-150,0l573,1433l197,0M414,532l535,0l-225,583C709,1151 695,1196 681,1250C674,1223 667,1198 660,1175C653,1152 646,1131 639,1114M578,1666C578,1651 575,1638 569,1625C563,1612 555,1600 545,1590C535,1580 523,1572 510,1567C496,1561 481,1558 466,1558C452,1558 439,1561 426,1567C413,1572 401,1580 391,1590C381,1600 373,1612 367,1625C361,1638 358,1651 358,1666C358,1681 361,1696 367,1710C373,1723 381,1735 391,1745C401,1755 413,1763 426,1769C439,1775 452,1778 466,1778C481,1778 496,1775 510,1769C523,1763 535,1755 545,1745C555,1735 563,1723 569,1710C575,1696 578,1681 578,1666M1004,1666C1004,1651 1001,1638 995,1625C989,1612 981,1600 971,1590C961,1580 949,1572 936,1567C923,1561 909,1558 894,1558C879,1558 864,1561 851,1567C838,1572 826,1580 816,1590C806,1600 798,1612 793,1625C787,1638 784,1651 784,1666C784,1681 787,1696 793,1710C798,1723 806,1735 816,1745C826,1755 838,1763 851,1769C864,1775 879,1778 894,1778C909,1778 923,1775 936,1769C949,1763 961,1755 971,1745C981,1735 989,1723 995,1710C1001,1696 1004,1681 1004,1666z" unicode="Ä" id="glyph2678"></glyph><glyph d="M1353,0l-150,0C1186,0 1172,4 1161,13C1150,22 1142,33 1137,46l-134,346l-643,0l-134,-346C221,34 213,23 202,14C191,5 177,0 160,0l-150,0l573,1433l197,0M414,532l535,0l-225,583C709,1151 695,1196 681,1250C674,1223 667,1198 660,1175C653,1152 646,1131 639,1114M489,1659C489,1685 494,1709 505,1731C515,1753 529,1772 546,1788C563,1803 582,1815 605,1824C628,1833 652,1837 677,1837C703,1837 728,1833 751,1824C774,1815 794,1803 812,1788C829,1772 843,1753 853,1731C863,1709 868,1685 868,1659C868,1634 863,1610 853,1589C843,1568 829,1549 812,1534C794,1519 774,1507 751,1498C728,1489 703,1485 677,1485C652,1485 628,1489 605,1498C582,1507 563,1519 546,1534C529,1549 515,1568 505,1589C494,1610 489,1634 489,1659M578,1659C578,1630 587,1607 605,1588C623,1569 648,1559 679,1559C709,1559 733,1569 752,1588C770,1607 779,1630 779,1659C779,1689 770,1713 752,1732C733,1751 709,1760 679,1760C648,1760 623,1751 605,1732C587,1713 578,1689 578,1659z" unicode="Å" id="glyph2680"></glyph><glyph d="M733,1433l1021,0l0,-158l-749,0l60,-476l559,0l0,-152l-540,0l61,-489l609,0l0,-158l-772,0l-49,392l-556,0l-179,-347C191,32 181,21 169,13C156,4 141,0 124,0l-148,0M450,532l465,0l-94,753C813,1258 804,1233 795,1210C785,1187 775,1165 766,1144z" unicode="Æ" id="glyph2682"></glyph><glyph d="M643,-247C647,-247 652,-248 657,-250C662,-253 669,-255 676,-258C683,-261 692,-264 703,-266C714,-269 726,-270 740,-270C768,-270 789,-264 804,-253C818,-242 825,-228 825,-211C825,-198 821,-188 814,-179C807,-170 796,-163 783,-157C769,-151 752,-146 732,-142C712,-138 689,-134 664,-131l36,118C607,-5 523,19 448,58C373,97 309,148 256,212C203,275 162,350 133,435C104,520 90,614 90,716C90,824 108,923 143,1013C178,1103 227,1180 290,1245C353,1310 429,1360 518,1396C606,1431 703,1449 810,1449C915,1449 1006,1433 1083,1400C1159,1367 1227,1323 1286,1267l-63,-89C1218,1171 1213,1166 1207,1162C1201,1157 1192,1155 1181,1155C1172,1155 1163,1158 1154,1165C1144,1171 1132,1179 1119,1188C1106,1197 1090,1207 1072,1218C1054,1229 1033,1239 1008,1248C983,1257 955,1265 922,1272C889,1278 852,1281 809,1281C732,1281 662,1268 599,1242C535,1215 480,1178 434,1129C388,1080 352,1021 327,951C301,881 288,803 288,716C288,627 301,547 327,477C352,407 387,348 432,300C476,251 528,214 589,189C650,164 715,151 785,151C828,151 866,154 900,159C934,164 966,171 995,182C1024,193 1051,206 1076,223C1101,239 1126,258 1151,281C1162,291 1173,296 1184,296C1195,296 1204,292 1213,283l76,-83C1234,135 1167,84 1090,47C1012,10 919,-11 811,-15l-16,-55C855,-83 899,-101 926,-124C953,-147 966,-177 966,-213C966,-234 961,-253 950,-270C939,-287 925,-302 906,-314C887,-326 864,-335 837,-341C810,-348 781,-351 749,-351C722,-351 696,-348 671,-342C646,-337 624,-329 603,-320l17,55C624,-253 632,-247 643,-247z" unicode="Ç" id="glyph2684"></glyph><glyph d="M1057,1433l0,-158l-688,0l0,-476l557,0l0,-152l-557,0l0,-489l688,0l0,-158l-883,0l0,1433M468,1782C489,1782 505,1780 516,1776C527,1771 539,1762 552,1749l211,-203l-139,0C610,1546 599,1547 591,1550C583,1552 573,1557 562,1565l-295,217z" unicode="È" id="glyph2686"></glyph><glyph d="M1057,1433l0,-158l-688,0l0,-476l557,0l0,-152l-557,0l0,-489l688,0l0,-158l-883,0l0,1433M969,1782l-294,-216C664,1558 654,1553 645,1550C636,1547 625,1546 611,1546l-138,0l211,203C691,1756 697,1761 703,1765C708,1769 714,1772 720,1775C726,1778 733,1780 740,1781C747,1782 757,1782 768,1782z" unicode="É" id="glyph2688"></glyph><glyph d="M1057,1433l0,-158l-688,0l0,-476l557,0l0,-152l-557,0l0,-489l688,0l0,-158l-883,0l0,1433M954,1546l-135,0C811,1546 802,1547 793,1550C784,1552 776,1555 770,1559l-130,95C635,1657 631,1659 628,1662C623,1658 619,1655 616,1654l-130,-95C480,1555 472,1552 463,1550C454,1547 445,1546 437,1546l-135,0l238,210l176,0z" unicode="Ê" id="glyph2690"></glyph><glyph d="M1057,1433l0,-158l-688,0l0,-476l557,0l0,-152l-557,0l0,-489l688,0l0,-158l-883,0l0,1433M526,1666C526,1651 523,1638 517,1625C511,1612 503,1600 493,1590C483,1580 471,1572 458,1567C444,1561 429,1558 414,1558C400,1558 387,1561 374,1567C361,1572 349,1580 339,1590C329,1600 321,1612 315,1625C309,1638 306,1651 306,1666C306,1681 309,1696 315,1710C321,1723 329,1735 339,1745C349,1755 361,1763 374,1769C387,1775 400,1778 414,1778C429,1778 444,1775 458,1769C471,1763 483,1755 493,1745C503,1735 511,1723 517,1710C523,1696 526,1681 526,1666M952,1666C952,1651 949,1638 943,1625C937,1612 929,1600 919,1590C909,1580 897,1572 884,1567C871,1561 857,1558 842,1558C827,1558 812,1561 799,1567C786,1572 774,1580 764,1590C754,1600 746,1612 741,1625C735,1638 732,1651 732,1666C732,1681 735,1696 741,1710C746,1723 754,1735 764,1745C774,1755 786,1763 799,1769C812,1775 827,1778 842,1778C857,1778 871,1775 884,1769C897,1763 909,1755 919,1745C929,1735 937,1723 943,1710C949,1696 952,1681 952,1666z" unicode="Ë" id="glyph2692"></glyph><glyph d="M404,0l-194,0l0,1433l194,0M149,1782C170,1782 186,1780 197,1776C208,1771 220,1762 233,1749l211,-203l-139,0C291,1546 280,1547 272,1550C264,1552 254,1557 243,1565l-295,217z" unicode="Ì" id="glyph2694"></glyph><glyph d="M404,0l-194,0l0,1433l194,0M650,1782l-294,-216C345,1558 335,1553 326,1550C317,1547 306,1546 292,1546l-138,0l211,203C372,1756 378,1761 384,1765C389,1769 395,1772 401,1775C407,1778 414,1780 421,1781C428,1782 438,1782 449,1782z" unicode="Í" id="glyph2696"></glyph><glyph d="M404,0l-194,0l0,1433l194,0M635,1546l-135,0C492,1546 483,1547 474,1550C465,1552 457,1555 451,1559l-130,95C316,1657 312,1659 309,1662C304,1658 300,1655 297,1654l-130,-95C161,1555 153,1552 144,1550C135,1547 126,1546 118,1546l-135,0l238,210l176,0z" unicode="Î" id="glyph2698"></glyph><glyph d="M404,0l-194,0l0,1433l194,0M206,1666C206,1651 203,1638 197,1625C191,1612 183,1600 173,1590C163,1580 151,1572 138,1567C124,1561 109,1558 94,1558C80,1558 67,1561 54,1567C41,1572 29,1580 19,1590C9,1600 1,1612 -5,1625C-11,1638 -14,1651 -14,1666C-14,1681 -11,1696 -5,1710C1,1723 9,1735 19,1745C29,1755 41,1763 54,1769C67,1775 80,1778 94,1778C109,1778 124,1775 138,1769C151,1763 163,1755 173,1745C183,1735 191,1723 197,1710C203,1696 206,1681 206,1666M632,1666C632,1651 629,1638 623,1625C617,1612 609,1600 599,1590C589,1580 577,1572 564,1567C551,1561 537,1558 522,1558C507,1558 492,1561 479,1567C466,1572 454,1580 444,1590C434,1600 426,1612 421,1625C415,1638 412,1651 412,1666C412,1681 415,1696 421,1710C426,1723 434,1735 444,1745C454,1755 466,1763 479,1769C492,1775 507,1778 522,1778C537,1778 551,1775 564,1769C577,1763 589,1755 599,1745C609,1735 617,1723 623,1710C629,1696 632,1681 632,1666z" unicode="Ï" id="glyph2700"></glyph><glyph d="M50,780l197,0l0,653l535,0C887,1433 984,1416 1071,1382C1158,1347 1232,1299 1294,1236C1356,1173 1404,1097 1438,1009C1472,921 1489,823 1489,716C1489,609 1472,511 1438,423C1404,335 1356,260 1294,197C1232,134 1158,86 1071,52C984,17 887,0 782,0l-535,0l0,666l-197,0M1290,716C1290,804 1278,883 1254,952C1230,1021 1196,1080 1152,1128C1108,1176 1055,1213 992,1238C929,1263 859,1276 782,1276l-341,0l0,-496l381,0l0,-114l-381,0l0,-509l341,0C859,157 929,170 992,195C1055,220 1108,257 1152,305C1196,352 1230,411 1254,480C1278,549 1290,628 1290,716z" unicode="Ð" id="glyph2702"></glyph><glyph d="M274,1433C291,1433 304,1431 313,1427C321,1422 330,1413 341,1400l830,-1080C1169,337 1168,354 1167,371C1166,387 1166,403 1166,418l0,1015l170,0l0,-1433l-98,0C1223,0 1210,3 1200,8C1189,13 1179,22 1169,35l-829,1079C341,1097 342,1081 343,1065C344,1049 344,1034 344,1021l0,-1021l-170,0l0,1433l100,0M901,1663C924,1663 942,1670 955,1684C967,1697 973,1716 974,1741l98,0C1072,1712 1068,1686 1061,1662C1054,1638 1043,1617 1029,1600C1015,1582 998,1568 977,1559C956,1549 933,1544 906,1544C883,1544 860,1548 839,1557C818,1566 797,1575 778,1586C758,1596 739,1605 722,1614C705,1623 688,1627 672,1627C649,1627 632,1620 620,1606C607,1591 601,1572 600,1548l-100,0C500,1577 504,1603 512,1628C519,1652 530,1673 545,1690C559,1707 577,1721 598,1731C619,1741 642,1746 668,1746C691,1746 714,1742 735,1733C756,1724 777,1715 796,1705C815,1694 834,1685 851,1676C868,1667 885,1663 901,1663z" unicode="Ñ" id="glyph2704"></glyph><glyph d="M1505,716C1505,609 1488,510 1454,421C1420,331 1372,254 1310,189C1248,124 1174,74 1087,39C1000,3 903,-15 798,-15C693,-15 597,3 510,39C423,74 349,124 287,189C225,254 177,331 143,421C109,510 92,609 92,716C92,823 109,922 143,1012C177,1101 225,1179 287,1244C349,1309 423,1359 510,1395C597,1431 693,1449 798,1449C903,1449 1000,1431 1087,1395C1174,1359 1248,1309 1310,1244C1372,1179 1420,1101 1454,1012C1488,922 1505,823 1505,716M1306,716C1306,804 1294,883 1270,953C1246,1023 1212,1082 1168,1131C1124,1179 1071,1216 1008,1242C945,1268 875,1281 798,1281C721,1281 652,1268 589,1242C526,1216 473,1179 429,1131C384,1082 350,1023 326,953C302,883 290,804 290,716C290,628 302,549 326,480C350,410 384,351 429,303C473,254 526,217 589,192C652,166 721,153 798,153C875,153 945,166 1008,192C1071,217 1124,254 1168,303C1212,351 1246,410 1270,480C1294,549 1306,628 1306,716M640,1782C661,1782 677,1780 688,1776C699,1771 711,1762 724,1749l211,-203l-139,0C782,1546 771,1547 763,1550C755,1552 745,1557 734,1565l-295,217z" unicode="Ò" id="glyph2706"></glyph><glyph d="M1505,716C1505,609 1488,510 1454,421C1420,331 1372,254 1310,189C1248,124 1174,74 1087,39C1000,3 903,-15 798,-15C693,-15 597,3 510,39C423,74 349,124 287,189C225,254 177,331 143,421C109,510 92,609 92,716C92,823 109,922 143,1012C177,1101 225,1179 287,1244C349,1309 423,1359 510,1395C597,1431 693,1449 798,1449C903,1449 1000,1431 1087,1395C1174,1359 1248,1309 1310,1244C1372,1179 1420,1101 1454,1012C1488,922 1505,823 1505,716M1306,716C1306,804 1294,883 1270,953C1246,1023 1212,1082 1168,1131C1124,1179 1071,1216 1008,1242C945,1268 875,1281 798,1281C721,1281 652,1268 589,1242C526,1216 473,1179 429,1131C384,1082 350,1023 326,953C302,883 290,804 290,716C290,628 302,549 326,480C350,410 384,351 429,303C473,254 526,217 589,192C652,166 721,153 798,153C875,153 945,166 1008,192C1071,217 1124,254 1168,303C1212,351 1246,410 1270,480C1294,549 1306,628 1306,716M1141,1782l-294,-216C836,1558 826,1553 817,1550C808,1547 797,1546 783,1546l-138,0l211,203C863,1756 869,1761 875,1765C880,1769 886,1772 892,1775C898,1778 905,1780 912,1781C919,1782 929,1782 940,1782z" unicode="Ó" id="glyph2708"></glyph><glyph d="M1505,716C1505,609 1488,510 1454,421C1420,331 1372,254 1310,189C1248,124 1174,74 1087,39C1000,3 903,-15 798,-15C693,-15 597,3 510,39C423,74 349,124 287,189C225,254 177,331 143,421C109,510 92,609 92,716C92,823 109,922 143,1012C177,1101 225,1179 287,1244C349,1309 423,1359 510,1395C597,1431 693,1449 798,1449C903,1449 1000,1431 1087,1395C1174,1359 1248,1309 1310,1244C1372,1179 1420,1101 1454,1012C1488,922 1505,823 1505,716M1306,716C1306,804 1294,883 1270,953C1246,1023 1212,1082 1168,1131C1124,1179 1071,1216 1008,1242C945,1268 875,1281 798,1281C721,1281 652,1268 589,1242C526,1216 473,1179 429,1131C384,1082 350,1023 326,953C302,883 290,804 290,716C290,628 302,549 326,480C350,410 384,351 429,303C473,254 526,217 589,192C652,166 721,153 798,153C875,153 945,166 1008,192C1071,217 1124,254 1168,303C1212,351 1246,410 1270,480C1294,549 1306,628 1306,716M1126,1546l-135,0C983,1546 974,1547 965,1550C956,1552 948,1555 942,1559l-130,95C807,1657 803,1659 800,1662C795,1658 791,1655 788,1654l-130,-95C652,1555 644,1552 635,1550C626,1547 617,1546 609,1546l-135,0l238,210l176,0z" unicode="Ô" id="glyph2710"></glyph><glyph d="M1505,716C1505,609 1488,510 1454,421C1420,331 1372,254 1310,189C1248,124 1174,74 1087,39C1000,3 903,-15 798,-15C693,-15 597,3 510,39C423,74 349,124 287,189C225,254 177,331 143,421C109,510 92,609 92,716C92,823 109,922 143,1012C177,1101 225,1179 287,1244C349,1309 423,1359 510,1395C597,1431 693,1449 798,1449C903,1449 1000,1431 1087,1395C1174,1359 1248,1309 1310,1244C1372,1179 1420,1101 1454,1012C1488,922 1505,823 1505,716M1306,716C1306,804 1294,883 1270,953C1246,1023 1212,1082 1168,1131C1124,1179 1071,1216 1008,1242C945,1268 875,1281 798,1281C721,1281 652,1268 589,1242C526,1216 473,1179 429,1131C384,1082 350,1023 326,953C302,883 290,804 290,716C290,628 302,549 326,480C350,410 384,351 429,303C473,254 526,217 589,192C652,166 721,153 798,153C875,153 945,166 1008,192C1071,217 1124,254 1168,303C1212,351 1246,410 1270,480C1294,549 1306,628 1306,716M921,1663C944,1663 962,1670 975,1684C987,1697 993,1716 994,1741l98,0C1092,1712 1088,1686 1081,1662C1074,1638 1063,1617 1049,1600C1035,1582 1018,1568 997,1559C976,1549 953,1544 926,1544C903,1544 880,1548 859,1557C838,1566 817,1575 798,1586C778,1596 759,1605 742,1614C725,1623 708,1627 692,1627C669,1627 652,1620 640,1606C627,1591 621,1572 620,1548l-100,0C520,1577 524,1603 532,1628C539,1652 550,1673 565,1690C579,1707 597,1721 618,1731C639,1741 662,1746 688,1746C711,1746 734,1742 755,1733C776,1724 797,1715 816,1705C835,1694 854,1685 871,1676C888,1667 905,1663 921,1663z" unicode="Õ" id="glyph2712"></glyph><glyph d="M1505,716C1505,609 1488,510 1454,421C1420,331 1372,254 1310,189C1248,124 1174,74 1087,39C1000,3 903,-15 798,-15C693,-15 597,3 510,39C423,74 349,124 287,189C225,254 177,331 143,421C109,510 92,609 92,716C92,823 109,922 143,1012C177,1101 225,1179 287,1244C349,1309 423,1359 510,1395C597,1431 693,1449 798,1449C903,1449 1000,1431 1087,1395C1174,1359 1248,1309 1310,1244C1372,1179 1420,1101 1454,1012C1488,922 1505,823 1505,716M1306,716C1306,804 1294,883 1270,953C1246,1023 1212,1082 1168,1131C1124,1179 1071,1216 1008,1242C945,1268 875,1281 798,1281C721,1281 652,1268 589,1242C526,1216 473,1179 429,1131C384,1082 350,1023 326,953C302,883 290,804 290,716C290,628 302,549 326,480C350,410 384,351 429,303C473,254 526,217 589,192C652,166 721,153 798,153C875,153 945,166 1008,192C1071,217 1124,254 1168,303C1212,351 1246,410 1270,480C1294,549 1306,628 1306,716M698,1666C698,1651 695,1638 689,1625C683,1612 675,1600 665,1590C655,1580 643,1572 630,1567C616,1561 601,1558 586,1558C572,1558 559,1561 546,1567C533,1572 521,1580 511,1590C501,1600 493,1612 487,1625C481,1638 478,1651 478,1666C478,1681 481,1696 487,1710C493,1723 501,1735 511,1745C521,1755 533,1763 546,1769C559,1775 572,1778 586,1778C601,1778 616,1775 630,1769C643,1763 655,1755 665,1745C675,1735 683,1723 689,1710C695,1696 698,1681 698,1666M1124,1666C1124,1651 1121,1638 1115,1625C1109,1612 1101,1600 1091,1590C1081,1580 1069,1572 1056,1567C1043,1561 1029,1558 1014,1558C999,1558 984,1561 971,1567C958,1572 946,1580 936,1590C926,1600 918,1612 913,1625C907,1638 904,1651 904,1666C904,1681 907,1696 913,1710C918,1723 926,1735 936,1745C946,1755 958,1763 971,1769C984,1775 999,1778 1014,1778C1029,1778 1043,1775 1056,1769C1069,1763 1081,1755 1091,1745C1101,1735 1109,1723 1115,1710C1121,1696 1124,1681 1124,1666z" unicode="Ö" id="glyph2714"></glyph><glyph d="M1017,1014l-344,-344l354,-353l-95,-96l-354,354l-357,-356l-95,96l356,356l-345,345l95,96l345,-346l344,344z" unicode="×" id="glyph2716"></glyph><glyph d="M1505,716C1505,609 1488,510 1454,421C1420,331 1372,254 1310,189C1248,124 1174,74 1087,39C1000,3 903,-15 798,-15C726,-15 659,-7 596,10C533,26 476,50 423,82l-100,-136C308,-73 291,-87 272,-96C253,-105 233,-109 214,-109l-78,0l191,260C252,216 195,297 154,393C113,489 92,597 92,716C92,823 109,922 143,1012C177,1101 225,1179 287,1244C349,1309 423,1359 510,1395C597,1431 693,1449 798,1449C875,1449 946,1439 1013,1420C1080,1401 1141,1373 1196,1337l82,111C1291,1466 1303,1479 1314,1487C1325,1494 1341,1498 1362,1498l100,0l-172,-235C1359,1198 1412,1119 1449,1026C1486,933 1505,830 1505,716M290,716C290,626 303,546 328,476C353,405 388,346 434,297l659,899C1053,1224 1008,1245 959,1260C910,1274 856,1281 798,1281C721,1281 652,1268 589,1242C526,1216 473,1179 429,1131C384,1082 350,1023 326,953C302,883 290,804 290,716M1306,716C1306,800 1295,876 1274,943C1252,1010 1221,1067 1181,1115l-655,-892C603,176 694,153 798,153C875,153 945,166 1008,192C1071,217 1124,254 1168,303C1212,351 1246,410 1270,480C1294,549 1306,628 1306,716z" unicode="Ø" id="glyph2718"></glyph><glyph d="M731,154C790,154 843,164 890,184C937,204 976,232 1009,268C1041,304 1066,347 1083,397C1100,447 1108,502 1108,562l0,871l193,0l0,-871C1301,479 1288,403 1262,332C1235,261 1198,200 1149,149C1100,97 1040,56 969,27C898,-2 819,-17 731,-17C643,-17 564,-2 493,27C422,56 362,97 313,149C264,200 226,261 200,332C173,403 160,479 160,562l0,871l193,0l0,-870C353,503 362,448 379,398C396,348 420,305 453,269C485,233 525,205 572,185C619,164 672,154 731,154M570,1782C591,1782 607,1780 618,1776C629,1771 641,1762 654,1749l211,-203l-139,0C712,1546 701,1547 693,1550C685,1552 675,1557 664,1565l-295,217z" unicode="Ù" id="glyph2720"></glyph><glyph d="M731,154C790,154 843,164 890,184C937,204 976,232 1009,268C1041,304 1066,347 1083,397C1100,447 1108,502 1108,562l0,871l193,0l0,-871C1301,479 1288,403 1262,332C1235,261 1198,200 1149,149C1100,97 1040,56 969,27C898,-2 819,-17 731,-17C643,-17 564,-2 493,27C422,56 362,97 313,149C264,200 226,261 200,332C173,403 160,479 160,562l0,871l193,0l0,-870C353,503 362,448 379,398C396,348 420,305 453,269C485,233 525,205 572,185C619,164 672,154 731,154M1071,1782l-294,-216C766,1558 756,1553 747,1550C738,1547 727,1546 713,1546l-138,0l211,203C793,1756 799,1761 805,1765C810,1769 816,1772 822,1775C828,1778 835,1780 842,1781C849,1782 859,1782 870,1782z" unicode="Ú" id="glyph2722"></glyph><glyph d="M731,154C790,154 843,164 890,184C937,204 976,232 1009,268C1041,304 1066,347 1083,397C1100,447 1108,502 1108,562l0,871l193,0l0,-871C1301,479 1288,403 1262,332C1235,261 1198,200 1149,149C1100,97 1040,56 969,27C898,-2 819,-17 731,-17C643,-17 564,-2 493,27C422,56 362,97 313,149C264,200 226,261 200,332C173,403 160,479 160,562l0,871l193,0l0,-870C353,503 362,448 379,398C396,348 420,305 453,269C485,233 525,205 572,185C619,164 672,154 731,154M1056,1546l-135,0C913,1546 904,1547 895,1550C886,1552 878,1555 872,1559l-130,95C737,1657 733,1659 730,1662C725,1658 721,1655 718,1654l-130,-95C582,1555 574,1552 565,1550C556,1547 547,1546 539,1546l-135,0l238,210l176,0z" unicode="Û" id="glyph2724"></glyph><glyph d="M731,154C790,154 843,164 890,184C937,204 976,232 1009,268C1041,304 1066,347 1083,397C1100,447 1108,502 1108,562l0,871l193,0l0,-871C1301,479 1288,403 1262,332C1235,261 1198,200 1149,149C1100,97 1040,56 969,27C898,-2 819,-17 731,-17C643,-17 564,-2 493,27C422,56 362,97 313,149C264,200 226,261 200,332C173,403 160,479 160,562l0,871l193,0l0,-870C353,503 362,448 379,398C396,348 420,305 453,269C485,233 525,205 572,185C619,164 672,154 731,154M628,1666C628,1651 625,1638 619,1625C613,1612 605,1600 595,1590C585,1580 573,1572 560,1567C546,1561 531,1558 516,1558C502,1558 489,1561 476,1567C463,1572 451,1580 441,1590C431,1600 423,1612 417,1625C411,1638 408,1651 408,1666C408,1681 411,1696 417,1710C423,1723 431,1735 441,1745C451,1755 463,1763 476,1769C489,1775 502,1778 516,1778C531,1778 546,1775 560,1769C573,1763 585,1755 595,1745C605,1735 613,1723 619,1710C625,1696 628,1681 628,1666M1054,1666C1054,1651 1051,1638 1045,1625C1039,1612 1031,1600 1021,1590C1011,1580 999,1572 986,1567C973,1561 959,1558 944,1558C929,1558 914,1561 901,1567C888,1572 876,1580 866,1590C856,1600 848,1612 843,1625C837,1638 834,1651 834,1666C834,1681 837,1696 843,1710C848,1723 856,1735 866,1745C876,1755 888,1763 901,1769C914,1775 929,1778 944,1778C959,1778 973,1775 986,1769C999,1763 1011,1755 1021,1745C1031,1735 1039,1723 1045,1710C1051,1696 1054,1681 1054,1666z" unicode="Ü" id="glyph2726"></glyph><glyph d="M726,570l0,-570l-193,0l0,570l-525,863l170,0C195,1433 209,1429 219,1420C229,1411 238,1401 245,1388l328,-557C586,808 598,786 607,765C616,744 624,724 631,704C638,725 646,745 655,766C664,787 675,808 688,831l327,557C1021,1399 1029,1409 1040,1419C1050,1428 1063,1433 1080,1433l172,0M971,1782l-294,-216C666,1558 656,1553 647,1550C638,1547 627,1546 613,1546l-138,0l211,203C693,1756 699,1761 705,1765C710,1769 716,1772 722,1775C728,1778 735,1780 742,1781C749,1782 759,1782 770,1782z" unicode="Ý" id="glyph2728"></glyph><glyph d="M387,272l0,-272l-193,0l0,1433l193,0l0,-264l230,0C708,1169 787,1159 854,1138C921,1117 976,1087 1020,1048C1064,1009 1097,963 1119,908C1140,853 1151,792 1151,725C1151,658 1139,597 1116,542C1093,487 1059,439 1014,399C969,359 913,328 846,306C779,283 703,272 617,272M387,426l230,0C672,426 721,433 764,448C806,463 841,483 870,510C899,536 920,567 935,604C950,641 957,681 957,725C957,816 929,888 873,939C816,990 731,1016 617,1016l-230,0z" unicode="Þ" id="glyph2730"></glyph><glyph d="M673,1454C742,1454 801,1444 852,1424C902,1404 943,1379 976,1348C1009,1317 1033,1283 1049,1246C1064,1209 1072,1174 1072,1140C1072,1100 1065,1066 1051,1037C1036,1008 1018,983 997,961C976,939 953,920 928,903C903,886 879,870 858,854C837,838 819,822 805,805C790,788 783,768 783,747C783,721 792,699 810,682C827,665 849,649 876,634C903,619 932,603 963,588C994,572 1022,552 1049,529C1076,506 1098,477 1116,443C1133,409 1142,366 1142,314C1142,262 1133,216 1114,175C1095,134 1068,100 1035,72C1002,43 963,22 918,7C873,-8 824,-16 771,-16C706,-16 648,-4 595,19C542,42 496,71 456,107l41,68C502,184 509,190 517,195C524,200 534,202 545,202C557,202 570,197 583,188C596,179 612,168 631,157C649,146 671,135 696,126C721,117 751,112 786,112C815,112 842,117 865,126C888,135 908,147 925,162C941,177 953,196 962,217C971,238 975,261 975,286C975,323 966,354 947,377C928,400 905,421 877,438C849,455 819,470 786,484C753,498 723,515 695,534C667,553 644,577 625,605C606,632 597,668 597,712C597,747 605,778 620,805C635,831 653,855 676,876C698,897 722,916 748,934C774,952 798,971 821,991C843,1011 862,1033 877,1057C892,1080 899,1108 899,1140C899,1161 895,1183 887,1205C878,1226 865,1246 846,1263C827,1280 803,1295 774,1306C744,1317 708,1322 666,1322C621,1322 580,1315 543,1301C506,1287 474,1266 448,1238C421,1210 401,1175 387,1133C372,1091 365,1042 365,986l0,-986l-179,0l0,992C186,1061 198,1124 221,1181C244,1238 276,1286 319,1327C362,1368 413,1399 473,1421C533,1443 600,1454 673,1454z" unicode="ß" id="glyph2732"></glyph><glyph d="M890,0l-79,0C794,0 780,3 769,8C758,13 751,25 748,42l-20,94C701,112 675,91 650,72C625,53 598,37 570,24C542,11 512,1 481,-6C449,-13 414,-16 375,-16C336,-16 299,-10 265,1C230,12 200,28 175,50C150,72 130,100 115,134C100,167 92,207 92,253C92,293 103,332 125,369C147,406 183,438 232,467C281,496 345,519 424,538C503,556 600,566 715,569l0,79C715,727 698,786 665,827C631,867 581,887 515,887C472,887 435,882 406,871C376,860 350,847 329,834C307,820 288,808 273,797C257,786 241,780 226,780C214,780 204,783 195,790C186,796 178,804 173,813l-32,57C197,924 257,964 322,991C387,1018 458,1031 537,1031C594,1031 644,1022 688,1003C732,984 769,958 799,925C829,892 852,851 867,804C882,757 890,705 890,648M428,109C459,109 488,112 514,119C540,125 565,134 588,146C611,157 633,171 654,188C675,205 695,224 715,245l0,211C633,453 563,447 506,437C449,426 402,413 366,396C330,379 304,360 288,337C271,314 263,289 263,261C263,234 267,211 276,192C285,173 296,157 311,145C326,132 343,123 363,118C383,112 405,109 428,109M428,1449C450,1449 466,1446 477,1439C488,1432 498,1420 507,1405l149,-242l-102,0C540,1163 529,1165 520,1170C511,1174 502,1181 493,1191l-234,258z" unicode="à" id="glyph2734"></glyph><glyph d="M890,0l-79,0C794,0 780,3 769,8C758,13 751,25 748,42l-20,94C701,112 675,91 650,72C625,53 598,37 570,24C542,11 512,1 481,-6C449,-13 414,-16 375,-16C336,-16 299,-10 265,1C230,12 200,28 175,50C150,72 130,100 115,134C100,167 92,207 92,253C92,293 103,332 125,369C147,406 183,438 232,467C281,496 345,519 424,538C503,556 600,566 715,569l0,79C715,727 698,786 665,827C631,867 581,887 515,887C472,887 435,882 406,871C376,860 350,847 329,834C307,820 288,808 273,797C257,786 241,780 226,780C214,780 204,783 195,790C186,796 178,804 173,813l-32,57C197,924 257,964 322,991C387,1018 458,1031 537,1031C594,1031 644,1022 688,1003C732,984 769,958 799,925C829,892 852,851 867,804C882,757 890,705 890,648M428,109C459,109 488,112 514,119C540,125 565,134 588,146C611,157 633,171 654,188C675,205 695,224 715,245l0,211C633,453 563,447 506,437C449,426 402,413 366,396C330,379 304,360 288,337C271,314 263,289 263,261C263,234 267,211 276,192C285,173 296,157 311,145C326,132 343,123 363,118C383,112 405,109 428,109M818,1449l-233,-258C576,1181 567,1174 558,1170C549,1165 537,1163 523,1163l-106,0l148,242C574,1420 585,1432 596,1439C607,1446 623,1449 644,1449z" unicode="á" id="glyph2736"></glyph><glyph d="M890,0l-79,0C794,0 780,3 769,8C758,13 751,25 748,42l-20,94C701,112 675,91 650,72C625,53 598,37 570,24C542,11 512,1 481,-6C449,-13 414,-16 375,-16C336,-16 299,-10 265,1C230,12 200,28 175,50C150,72 130,100 115,134C100,167 92,207 92,253C92,293 103,332 125,369C147,406 183,438 232,467C281,496 345,519 424,538C503,556 600,566 715,569l0,79C715,727 698,786 665,827C631,867 581,887 515,887C472,887 435,882 406,871C376,860 350,847 329,834C307,820 288,808 273,797C257,786 241,780 226,780C214,780 204,783 195,790C186,796 178,804 173,813l-32,57C197,924 257,964 322,991C387,1018 458,1031 537,1031C594,1031 644,1022 688,1003C732,984 769,958 799,925C829,892 852,851 867,804C882,757 890,705 890,648M428,109C459,109 488,112 514,119C540,125 565,134 588,146C611,157 633,171 654,188C675,205 695,224 715,245l0,211C633,453 563,447 506,437C449,426 402,413 366,396C330,379 304,360 288,337C271,314 263,289 263,261C263,234 267,211 276,192C285,173 296,157 311,145C326,132 343,123 363,118C383,112 405,109 428,109M833,1169l-119,0C700,1169 687,1174 674,1183l-128,126l-17,17l-16,-17l-129,-126C380,1180 374,1177 367,1174C360,1171 352,1169 344,1169l-123,0l223,264l166,0z" unicode="â" id="glyph2738"></glyph><glyph d="M890,0l-79,0C794,0 780,3 769,8C758,13 751,25 748,42l-20,94C701,112 675,91 650,72C625,53 598,37 570,24C542,11 512,1 481,-6C449,-13 414,-16 375,-16C336,-16 299,-10 265,1C230,12 200,28 175,50C150,72 130,100 115,134C100,167 92,207 92,253C92,293 103,332 125,369C147,406 183,438 232,467C281,496 345,519 424,538C503,556 600,566 715,569l0,79C715,727 698,786 665,827C631,867 581,887 515,887C472,887 435,882 406,871C376,860 350,847 329,834C307,820 288,808 273,797C257,786 241,780 226,780C214,780 204,783 195,790C186,796 178,804 173,813l-32,57C197,924 257,964 322,991C387,1018 458,1031 537,1031C594,1031 644,1022 688,1003C732,984 769,958 799,925C829,892 852,851 867,804C882,757 890,705 890,648M428,109C459,109 488,112 514,119C540,125 565,134 588,146C611,157 633,171 654,188C675,205 695,224 715,245l0,211C633,453 563,447 506,437C449,426 402,413 366,396C330,379 304,360 288,337C271,314 263,289 263,261C263,234 267,211 276,192C285,173 296,157 311,145C326,132 343,123 363,118C383,112 405,109 428,109M638,1325C662,1325 681,1332 694,1346C707,1360 713,1382 714,1411l108,0C822,1380 818,1351 810,1325C801,1298 789,1276 774,1257C758,1238 739,1224 718,1214C696,1203 672,1198 645,1198C622,1198 600,1203 580,1213C559,1222 540,1233 522,1244C504,1255 487,1266 471,1276C455,1285 439,1290 424,1290C376,1290 351,1261 350,1202l-111,0C239,1234 243,1263 252,1290C261,1316 273,1339 289,1358C305,1377 324,1391 346,1402C368,1412 392,1417 418,1417C441,1417 463,1412 484,1403C504,1393 523,1382 541,1371C559,1360 576,1349 592,1340C607,1330 623,1325 638,1325z" unicode="ã" id="glyph2740"></glyph><glyph d="M890,0l-79,0C794,0 780,3 769,8C758,13 751,25 748,42l-20,94C701,112 675,91 650,72C625,53 598,37 570,24C542,11 512,1 481,-6C449,-13 414,-16 375,-16C336,-16 299,-10 265,1C230,12 200,28 175,50C150,72 130,100 115,134C100,167 92,207 92,253C92,293 103,332 125,369C147,406 183,438 232,467C281,496 345,519 424,538C503,556 600,566 715,569l0,79C715,727 698,786 665,827C631,867 581,887 515,887C472,887 435,882 406,871C376,860 350,847 329,834C307,820 288,808 273,797C257,786 241,780 226,780C214,780 204,783 195,790C186,796 178,804 173,813l-32,57C197,924 257,964 322,991C387,1018 458,1031 537,1031C594,1031 644,1022 688,1003C732,984 769,958 799,925C829,892 852,851 867,804C882,757 890,705 890,648M428,109C459,109 488,112 514,119C540,125 565,134 588,146C611,157 633,171 654,188C675,205 695,224 715,245l0,211C633,453 563,447 506,437C449,426 402,413 366,396C330,379 304,360 288,337C271,314 263,289 263,261C263,234 267,211 276,192C285,173 296,157 311,145C326,132 343,123 363,118C383,112 405,109 428,109M460,1289C460,1274 457,1259 451,1246C445,1233 437,1221 426,1211C415,1201 403,1193 390,1187C376,1181 361,1178 346,1178C331,1178 317,1181 304,1187C291,1193 279,1201 269,1211C258,1221 250,1233 244,1246C238,1259 235,1274 235,1289C235,1304 238,1319 244,1333C250,1347 258,1359 269,1370C279,1380 291,1388 304,1394C317,1400 331,1403 346,1403C361,1403 376,1400 390,1394C403,1388 415,1380 426,1370C437,1359 445,1347 451,1333C457,1319 460,1304 460,1289M819,1289C819,1274 816,1259 810,1246C804,1233 796,1221 786,1211C775,1201 763,1193 750,1187C736,1181 721,1178 706,1178C691,1178 676,1181 663,1187C649,1193 637,1201 627,1211C617,1221 609,1233 603,1246C597,1259 594,1274 594,1289C594,1304 597,1319 603,1333C609,1347 617,1359 627,1370C637,1380 649,1388 663,1394C676,1400 691,1403 706,1403C721,1403 736,1400 750,1394C763,1388 775,1380 786,1370C796,1359 804,1347 810,1333C816,1319 819,1304 819,1289z" unicode="ä" id="glyph2742"></glyph><glyph d="M890,0l-79,0C794,0 780,3 769,8C758,13 751,25 748,42l-20,94C701,112 675,91 650,72C625,53 598,37 570,24C542,11 512,1 481,-6C449,-13 414,-16 375,-16C336,-16 299,-10 265,1C230,12 200,28 175,50C150,72 130,100 115,134C100,167 92,207 92,253C92,293 103,332 125,369C147,406 183,438 232,467C281,496 345,519 424,538C503,556 600,566 715,569l0,79C715,727 698,786 665,827C631,867 581,887 515,887C472,887 435,882 406,871C376,860 350,847 329,834C307,820 288,808 273,797C257,786 241,780 226,780C214,780 204,783 195,790C186,796 178,804 173,813l-32,57C197,924 257,964 322,991C387,1018 458,1031 537,1031C594,1031 644,1022 688,1003C732,984 769,958 799,925C829,892 852,851 867,804C882,757 890,705 890,648M428,109C459,109 488,112 514,119C540,125 565,134 588,146C611,157 633,171 654,188C675,205 695,224 715,245l0,211C633,453 563,447 506,437C449,426 402,413 366,396C330,379 304,360 288,337C271,314 263,289 263,261C263,234 267,211 276,192C285,173 296,157 311,145C326,132 343,123 363,118C383,112 405,109 428,109M328,1315C328,1343 333,1368 344,1391C355,1414 369,1433 388,1450C406,1467 427,1480 451,1489C475,1498 500,1502 527,1502C554,1502 580,1498 605,1489C629,1480 650,1467 669,1450C688,1433 702,1414 713,1391C724,1368 729,1343 729,1315C729,1288 724,1263 713,1240C702,1217 688,1198 669,1182C650,1166 629,1154 605,1145C580,1136 554,1131 527,1131C500,1131 475,1136 451,1145C427,1154 406,1166 388,1182C369,1198 355,1217 344,1240C333,1263 328,1288 328,1315M428,1315C428,1286 437,1262 455,1243C473,1224 498,1215 529,1215C559,1215 583,1224 602,1243C620,1262 629,1286 629,1315C629,1345 620,1369 602,1388C583,1407 559,1416 529,1416C498,1416 473,1407 455,1388C437,1369 428,1345 428,1315z" unicode="å" id="glyph2744"></glyph><glyph d="M1166,1029C1221,1029 1272,1018 1319,997C1366,976 1406,945 1441,904C1475,863 1502,814 1522,756C1541,697 1551,631 1551,556C1551,529 1548,510 1543,501C1538,491 1527,486 1510,486l-627,0C886,425 895,373 910,328C925,283 946,245 972,215C997,185 1028,163 1063,148C1098,133 1137,126 1180,126C1226,126 1264,131 1295,141C1326,150 1351,161 1372,173C1392,185 1408,196 1421,206C1434,215 1445,220 1456,220C1465,220 1473,219 1479,216C1485,213 1490,208 1494,203l47,-61C1519,115 1494,92 1465,73C1436,53 1405,37 1372,24C1339,11 1304,2 1269,-4C1234,-11 1199,-14 1164,-14C1086,-14 1015,5 952,43C888,80 838,138 801,215C783,174 760,138 731,109C702,80 669,56 634,37C599,18 561,5 522,-3C482,-12 442,-16 403,-16C357,-16 315,-10 277,2C239,13 206,31 179,54C151,77 130,107 115,142C100,177 92,219 92,267C92,307 103,346 125,385C147,424 183,458 232,489C281,520 345,545 424,565C503,584 600,595 715,598l0,50C715,727 698,787 665,829C631,871 581,892 515,892C472,892 435,886 406,875C376,863 350,850 329,836C307,822 288,809 273,798C257,786 241,780 226,780C214,780 204,783 195,790C186,796 178,804 173,813l-32,57C197,924 255,964 316,991C376,1018 444,1031 519,1031C599,1031 663,1014 712,980C761,946 796,899 818,838C854,897 901,943 959,978C1016,1012 1085,1029 1166,1029M715,486C633,483 563,475 506,464C449,452 402,437 366,418C330,399 304,378 288,354C271,330 263,304 263,276C263,218 280,176 313,149C346,122 390,109 444,109C482,109 518,115 551,127C584,139 612,157 637,182C661,207 680,237 694,274C708,311 715,354 715,403M1159,898C1118,898 1082,891 1050,878C1018,864 991,844 968,818C945,792 926,760 913,723C899,686 890,644 885,597l508,0C1393,640 1388,681 1378,718C1367,755 1352,786 1332,813C1312,840 1288,861 1259,876C1230,891 1196,898 1159,898z" unicode="æ" id="glyph2746"></glyph><glyph d="M400,-247C404,-247 409,-248 414,-250C419,-253 426,-255 433,-258C440,-261 449,-264 460,-266C471,-269 483,-270 497,-270C525,-270 546,-264 561,-253C575,-242 582,-228 582,-211C582,-198 578,-188 571,-179C564,-170 553,-163 540,-157C526,-151 509,-146 489,-142C469,-138 446,-134 421,-131l37,121C403,-3 352,14 305,41C258,67 217,102 183,146C149,190 122,242 103,303C84,364 74,432 74,507C74,582 85,652 106,716C127,780 157,835 198,882C238,928 288,964 347,990C406,1016 474,1029 551,1029C622,1029 684,1018 739,995C794,972 842,939 884,897l-47,-64C832,826 826,820 821,816C816,812 808,810 798,810C788,810 777,814 766,823C754,831 739,840 721,850C703,860 681,869 656,878C630,886 598,890 561,890C512,890 468,881 430,864C392,846 360,820 335,787C309,754 290,713 277,666C264,619 257,566 257,507C257,446 264,391 278,344C292,296 312,256 337,224C362,191 393,167 430,150C466,133 507,124 552,124C595,124 631,129 659,140C687,150 710,161 729,174C748,187 763,198 775,209C787,219 799,224 811,224C818,224 825,223 831,220C836,217 841,212 845,207l50,-65C856,94 808,58 751,33C694,8 634,-7 569,-12l-17,-58C612,-83 656,-101 683,-124C710,-147 723,-177 723,-213C723,-234 718,-253 707,-270C696,-287 682,-302 663,-314C644,-326 621,-335 594,-341C567,-348 538,-351 506,-351C479,-351 453,-348 428,-342C403,-337 381,-329 360,-320l17,55C381,-253 389,-247 400,-247z" unicode="ç" id="glyph2748"></glyph><glyph d="M547,1029C608,1029 664,1019 715,999C766,978 811,949 848,911C885,872 915,825 936,769C957,712 967,648 967,576C967,548 964,529 958,520C952,511 941,506 924,506l-674,0C251,442 260,386 276,339C292,292 314,252 342,221C370,189 403,165 442,150C481,134 524,126 572,126C617,126 655,131 688,142C720,152 748,163 771,175C794,187 814,198 830,209C845,219 859,224 870,224C885,224 896,218 904,207l50,-65C932,115 906,92 875,73C844,53 812,37 777,24C742,11 705,2 668,-4C631,-11 594,-14 557,-14C487,-14 423,-2 364,22C305,45 254,80 211,126C168,171 134,228 110,295C86,362 74,440 74,527C74,598 85,664 107,725C128,786 159,840 200,885C241,930 290,965 349,991C408,1016 474,1029 547,1029M551,898C465,898 397,873 348,824C299,774 268,705 256,617l551,0C807,658 801,696 790,731C779,765 762,795 740,820C718,845 691,864 660,878C628,891 592,898 551,898M451,1449C473,1449 489,1446 500,1439C511,1432 521,1420 530,1405l149,-242l-102,0C563,1163 552,1165 543,1170C534,1174 525,1181 516,1191l-234,258z" unicode="è" id="glyph2750"></glyph><glyph d="M547,1029C608,1029 664,1019 715,999C766,978 811,949 848,911C885,872 915,825 936,769C957,712 967,648 967,576C967,548 964,529 958,520C952,511 941,506 924,506l-674,0C251,442 260,386 276,339C292,292 314,252 342,221C370,189 403,165 442,150C481,134 524,126 572,126C617,126 655,131 688,142C720,152 748,163 771,175C794,187 814,198 830,209C845,219 859,224 870,224C885,224 896,218 904,207l50,-65C932,115 906,92 875,73C844,53 812,37 777,24C742,11 705,2 668,-4C631,-11 594,-14 557,-14C487,-14 423,-2 364,22C305,45 254,80 211,126C168,171 134,228 110,295C86,362 74,440 74,527C74,598 85,664 107,725C128,786 159,840 200,885C241,930 290,965 349,991C408,1016 474,1029 547,1029M551,898C465,898 397,873 348,824C299,774 268,705 256,617l551,0C807,658 801,696 790,731C779,765 762,795 740,820C718,845 691,864 660,878C628,891 592,898 551,898M841,1449l-233,-258C599,1181 590,1174 581,1170C572,1165 560,1163 546,1163l-106,0l148,242C597,1420 608,1432 619,1439C630,1446 646,1449 667,1449z" unicode="é" id="glyph2752"></glyph><glyph d="M547,1029C608,1029 664,1019 715,999C766,978 811,949 848,911C885,872 915,825 936,769C957,712 967,648 967,576C967,548 964,529 958,520C952,511 941,506 924,506l-674,0C251,442 260,386 276,339C292,292 314,252 342,221C370,189 403,165 442,150C481,134 524,126 572,126C617,126 655,131 688,142C720,152 748,163 771,175C794,187 814,198 830,209C845,219 859,224 870,224C885,224 896,218 904,207l50,-65C932,115 906,92 875,73C844,53 812,37 777,24C742,11 705,2 668,-4C631,-11 594,-14 557,-14C487,-14 423,-2 364,22C305,45 254,80 211,126C168,171 134,228 110,295C86,362 74,440 74,527C74,598 85,664 107,725C128,786 159,840 200,885C241,930 290,965 349,991C408,1016 474,1029 547,1029M551,898C465,898 397,873 348,824C299,774 268,705 256,617l551,0C807,658 801,696 790,731C779,765 762,795 740,820C718,845 691,864 660,878C628,891 592,898 551,898M856,1169l-119,0C723,1169 710,1174 697,1183l-128,126l-17,17l-16,-17l-129,-126C403,1180 397,1177 390,1174C383,1171 375,1169 367,1169l-123,0l223,264l166,0z" unicode="ê" id="glyph2754"></glyph><glyph d="M547,1029C608,1029 664,1019 715,999C766,978 811,949 848,911C885,872 915,825 936,769C957,712 967,648 967,576C967,548 964,529 958,520C952,511 941,506 924,506l-674,0C251,442 260,386 276,339C292,292 314,252 342,221C370,189 403,165 442,150C481,134 524,126 572,126C617,126 655,131 688,142C720,152 748,163 771,175C794,187 814,198 830,209C845,219 859,224 870,224C885,224 896,218 904,207l50,-65C932,115 906,92 875,73C844,53 812,37 777,24C742,11 705,2 668,-4C631,-11 594,-14 557,-14C487,-14 423,-2 364,22C305,45 254,80 211,126C168,171 134,228 110,295C86,362 74,440 74,527C74,598 85,664 107,725C128,786 159,840 200,885C241,930 290,965 349,991C408,1016 474,1029 547,1029M551,898C465,898 397,873 348,824C299,774 268,705 256,617l551,0C807,658 801,696 790,731C779,765 762,795 740,820C718,845 691,864 660,878C628,891 592,898 551,898M483,1289C483,1274 480,1259 474,1246C468,1233 460,1221 449,1211C438,1201 426,1193 413,1187C399,1181 384,1178 369,1178C354,1178 340,1181 327,1187C314,1193 302,1201 292,1211C281,1221 273,1233 267,1246C261,1259 258,1274 258,1289C258,1304 261,1319 267,1333C273,1347 281,1359 292,1370C302,1380 314,1388 327,1394C340,1400 354,1403 369,1403C384,1403 399,1400 413,1394C426,1388 438,1380 449,1370C460,1359 468,1347 474,1333C480,1319 483,1304 483,1289M842,1289C842,1274 839,1259 833,1246C827,1233 819,1221 809,1211C798,1201 786,1193 773,1187C759,1181 744,1178 729,1178C714,1178 699,1181 686,1187C672,1193 660,1201 650,1211C640,1221 632,1233 626,1246C620,1259 617,1274 617,1289C617,1304 620,1319 626,1333C632,1347 640,1359 650,1370C660,1380 672,1388 686,1394C699,1400 714,1403 729,1403C744,1403 759,1400 773,1394C786,1388 798,1380 809,1370C819,1359 827,1347 833,1333C839,1319 842,1304 842,1289z" unicode="ë" id="glyph2756"></glyph><glyph d="M344,1013l0,-1013l-178,0l0,1013M162,1449C184,1449 200,1446 211,1439C222,1432 232,1420 241,1405l149,-242l-102,0C274,1163 263,1165 254,1170C245,1174 236,1181 227,1191l-234,258z" unicode="ì" id="glyph2758"></glyph><glyph d="M344,1013l0,-1013l-178,0l0,1013M552,1449l-233,-258C310,1181 301,1174 292,1170C283,1165 271,1163 257,1163l-106,0l148,242C308,1420 319,1432 330,1439C341,1446 357,1449 378,1449z" unicode="í" id="glyph2760"></glyph><glyph d="M344,1013l0,-1013l-178,0l0,1013M566,1169l-119,0C433,1169 420,1174 407,1183l-128,126l-17,17l-16,-17l-129,-126C113,1180 107,1177 100,1174C93,1171 85,1169 77,1169l-123,0l223,264l166,0z" unicode="î" id="glyph2762"></glyph><glyph d="M344,1013l0,-1013l-178,0l0,1013M194,1289C194,1274 191,1259 185,1246C179,1233 171,1221 160,1211C149,1201 137,1193 124,1187C110,1181 95,1178 80,1178C65,1178 51,1181 38,1187C25,1193 13,1201 3,1211C-8,1221 -16,1233 -22,1246C-28,1259 -31,1274 -31,1289C-31,1304 -28,1319 -22,1333C-16,1347 -8,1359 3,1370C13,1380 25,1388 38,1394C51,1400 65,1403 80,1403C95,1403 110,1400 124,1394C137,1388 149,1380 160,1370C171,1359 179,1347 185,1333C191,1319 194,1304 194,1289M553,1289C553,1274 550,1259 544,1246C538,1233 530,1221 520,1211C509,1201 497,1193 484,1187C470,1181 455,1178 440,1178C425,1178 410,1181 397,1187C383,1193 371,1201 361,1211C351,1221 343,1233 337,1246C331,1259 328,1274 328,1289C328,1304 331,1319 337,1333C343,1347 351,1359 361,1370C371,1380 383,1388 397,1394C410,1400 425,1403 440,1403C455,1403 470,1400 484,1394C497,1388 509,1380 520,1370C530,1359 538,1347 544,1333C550,1319 553,1304 553,1289z" unicode="ï" id="glyph2764"></glyph><glyph d="M417,1065C414,1070 412,1074 411,1079C409,1083 408,1087 408,1091C408,1106 416,1118 431,1128l103,72C504,1213 472,1226 439,1237C405,1248 369,1259 331,1268C319,1271 309,1278 301,1287C292,1296 288,1308 288,1323C288,1333 290,1343 293,1352l20,62C377,1403 439,1388 499,1368C559,1348 616,1322 670,1290l167,122l35,-57C877,1346 880,1338 880,1331C880,1317 873,1305 858,1294l-97,-67C801,1194 838,1157 871,1116C904,1075 932,1028 955,977C978,925 997,868 1010,807C1023,745 1029,677 1029,604C1029,509 1019,423 998,347C977,271 947,206 906,153C865,100 814,59 753,30C692,1 621,-13 541,-13C476,-13 415,-2 358,20C301,42 252,74 211,115C169,156 136,206 112,265C88,324 76,391 76,466C76,529 86,588 107,644C128,699 157,748 196,790C235,832 282,865 337,890C392,915 454,927 523,927C590,927 653,913 712,884C771,855 822,812 865,754C852,845 826,922 787,985C748,1048 697,1101 634,1144l-184,-135M545,125C592,125 635,134 674,152C712,170 745,197 772,234C799,270 820,316 835,371C850,426 859,490 861,564C850,593 836,621 819,648C802,675 781,699 756,720C731,741 702,757 669,770C636,782 598,788 557,788C507,788 463,780 426,763C388,746 356,724 331,695C306,666 287,631 274,592C261,552 254,509 254,464C254,410 262,362 277,320C292,277 313,242 340,213C367,184 398,163 433,148C468,133 505,125 545,125z" unicode="ð" id="glyph2766"></glyph><glyph d="M146,0l0,1013l106,0C277,1013 293,1001 300,976l14,-110C358,915 407,954 462,984C516,1014 579,1029 650,1029C705,1029 754,1020 797,1002C839,983 874,957 903,924C931,890 952,849 967,802C982,755 989,702 989,645l0,-645l-178,0l0,645C811,722 794,781 759,824C724,866 670,887 598,887C545,887 496,874 451,849C405,824 363,789 324,746l0,-746M675,1325C699,1325 718,1332 731,1346C744,1360 750,1382 751,1411l108,0C859,1380 855,1351 847,1325C838,1298 826,1276 811,1257C795,1238 776,1224 755,1214C733,1203 709,1198 682,1198C659,1198 637,1203 617,1213C596,1222 577,1233 559,1244C541,1255 524,1266 508,1276C492,1285 476,1290 461,1290C413,1290 388,1261 387,1202l-111,0C276,1234 280,1263 289,1290C298,1316 310,1339 326,1358C342,1377 361,1391 383,1402C405,1412 429,1417 455,1417C478,1417 500,1412 521,1403C541,1393 560,1382 578,1371C596,1360 613,1349 629,1340C644,1330 660,1325 675,1325z" unicode="ñ" id="glyph2768"></glyph><glyph d="M556,1029C630,1029 697,1017 757,992C816,967 867,932 909,887C950,842 982,787 1005,723C1027,658 1038,586 1038,507C1038,427 1027,355 1005,291C982,227 950,172 909,127C867,82 816,47 757,23C697,-2 630,-14 556,-14C482,-14 415,-2 356,23C296,47 245,82 203,127C161,172 129,227 106,291C83,355 72,427 72,507C72,586 83,658 106,723C129,787 161,842 203,887C245,932 296,967 356,992C415,1017 482,1029 556,1029M556,125C656,125 731,159 780,226C829,293 854,386 854,506C854,627 829,721 780,788C731,855 656,889 556,889C505,889 461,880 424,863C387,846 356,821 331,788C306,755 287,715 275,668C262,620 256,566 256,506C256,446 262,392 275,345C287,298 306,258 331,226C356,193 387,168 424,151C461,134 505,125 556,125M458,1449C480,1449 496,1446 507,1439C518,1432 528,1420 537,1405l149,-242l-102,0C570,1163 559,1165 550,1170C541,1174 532,1181 523,1191l-234,258z" unicode="ò" id="glyph2770"></glyph><glyph d="M556,1029C630,1029 697,1017 757,992C816,967 867,932 909,887C950,842 982,787 1005,723C1027,658 1038,586 1038,507C1038,427 1027,355 1005,291C982,227 950,172 909,127C867,82 816,47 757,23C697,-2 630,-14 556,-14C482,-14 415,-2 356,23C296,47 245,82 203,127C161,172 129,227 106,291C83,355 72,427 72,507C72,586 83,658 106,723C129,787 161,842 203,887C245,932 296,967 356,992C415,1017 482,1029 556,1029M556,125C656,125 731,159 780,226C829,293 854,386 854,506C854,627 829,721 780,788C731,855 656,889 556,889C505,889 461,880 424,863C387,846 356,821 331,788C306,755 287,715 275,668C262,620 256,566 256,506C256,446 262,392 275,345C287,298 306,258 331,226C356,193 387,168 424,151C461,134 505,125 556,125M848,1449l-233,-258C606,1181 597,1174 588,1170C579,1165 567,1163 553,1163l-106,0l148,242C604,1420 615,1432 626,1439C637,1446 653,1449 674,1449z" unicode="ó" id="glyph2772"></glyph><glyph d="M556,1029C630,1029 697,1017 757,992C816,967 867,932 909,887C950,842 982,787 1005,723C1027,658 1038,586 1038,507C1038,427 1027,355 1005,291C982,227 950,172 909,127C867,82 816,47 757,23C697,-2 630,-14 556,-14C482,-14 415,-2 356,23C296,47 245,82 203,127C161,172 129,227 106,291C83,355 72,427 72,507C72,586 83,658 106,723C129,787 161,842 203,887C245,932 296,967 356,992C415,1017 482,1029 556,1029M556,125C656,125 731,159 780,226C829,293 854,386 854,506C854,627 829,721 780,788C731,855 656,889 556,889C505,889 461,880 424,863C387,846 356,821 331,788C306,755 287,715 275,668C262,620 256,566 256,506C256,446 262,392 275,345C287,298 306,258 331,226C356,193 387,168 424,151C461,134 505,125 556,125M863,1169l-119,0C730,1169 717,1174 704,1183l-128,126l-17,17l-16,-17l-129,-126C410,1180 404,1177 397,1174C390,1171 382,1169 374,1169l-123,0l223,264l166,0z" unicode="ô" id="glyph2774"></glyph><glyph d="M556,1029C630,1029 697,1017 757,992C816,967 867,932 909,887C950,842 982,787 1005,723C1027,658 1038,586 1038,507C1038,427 1027,355 1005,291C982,227 950,172 909,127C867,82 816,47 757,23C697,-2 630,-14 556,-14C482,-14 415,-2 356,23C296,47 245,82 203,127C161,172 129,227 106,291C83,355 72,427 72,507C72,586 83,658 106,723C129,787 161,842 203,887C245,932 296,967 356,992C415,1017 482,1029 556,1029M556,125C656,125 731,159 780,226C829,293 854,386 854,506C854,627 829,721 780,788C731,855 656,889 556,889C505,889 461,880 424,863C387,846 356,821 331,788C306,755 287,715 275,668C262,620 256,566 256,506C256,446 262,392 275,345C287,298 306,258 331,226C356,193 387,168 424,151C461,134 505,125 556,125M668,1325C692,1325 711,1332 724,1346C737,1360 743,1382 744,1411l108,0C852,1380 848,1351 840,1325C831,1298 819,1276 804,1257C788,1238 769,1224 748,1214C726,1203 702,1198 675,1198C652,1198 630,1203 610,1213C589,1222 570,1233 552,1244C534,1255 517,1266 501,1276C485,1285 469,1290 454,1290C406,1290 381,1261 380,1202l-111,0C269,1234 273,1263 282,1290C291,1316 303,1339 319,1358C335,1377 354,1391 376,1402C398,1412 422,1417 448,1417C471,1417 493,1412 514,1403C534,1393 553,1382 571,1371C589,1360 606,1349 622,1340C637,1330 653,1325 668,1325z" unicode="õ" id="glyph2776"></glyph><glyph d="M556,1029C630,1029 697,1017 757,992C816,967 867,932 909,887C950,842 982,787 1005,723C1027,658 1038,586 1038,507C1038,427 1027,355 1005,291C982,227 950,172 909,127C867,82 816,47 757,23C697,-2 630,-14 556,-14C482,-14 415,-2 356,23C296,47 245,82 203,127C161,172 129,227 106,291C83,355 72,427 72,507C72,586 83,658 106,723C129,787 161,842 203,887C245,932 296,967 356,992C415,1017 482,1029 556,1029M556,125C656,125 731,159 780,226C829,293 854,386 854,506C854,627 829,721 780,788C731,855 656,889 556,889C505,889 461,880 424,863C387,846 356,821 331,788C306,755 287,715 275,668C262,620 256,566 256,506C256,446 262,392 275,345C287,298 306,258 331,226C356,193 387,168 424,151C461,134 505,125 556,125M490,1289C490,1274 487,1259 481,1246C475,1233 467,1221 456,1211C445,1201 433,1193 420,1187C406,1181 391,1178 376,1178C361,1178 347,1181 334,1187C321,1193 309,1201 299,1211C288,1221 280,1233 274,1246C268,1259 265,1274 265,1289C265,1304 268,1319 274,1333C280,1347 288,1359 299,1370C309,1380 321,1388 334,1394C347,1400 361,1403 376,1403C391,1403 406,1400 420,1394C433,1388 445,1380 456,1370C467,1359 475,1347 481,1333C487,1319 490,1304 490,1289M849,1289C849,1274 846,1259 840,1246C834,1233 826,1221 816,1211C805,1201 793,1193 780,1187C766,1181 751,1178 736,1178C721,1178 706,1181 693,1187C679,1193 667,1201 657,1211C647,1221 639,1233 633,1246C627,1259 624,1274 624,1289C624,1304 627,1319 633,1333C639,1347 647,1359 657,1370C667,1380 679,1388 693,1394C706,1400 721,1403 736,1403C751,1403 766,1400 780,1394C793,1388 805,1380 816,1370C826,1359 834,1347 840,1333C846,1319 849,1304 849,1289z" unicode="ö" id="glyph2778"></glyph><glyph d="M100,739l958,0l0,-135l-958,0M454,1026C454,1043 457,1060 464,1075C470,1090 479,1104 490,1115C501,1126 514,1135 529,1142C544,1149 560,1152 578,1152C595,1152 612,1149 627,1142C642,1135 655,1126 666,1115C677,1104 686,1090 693,1075C700,1060 703,1043 703,1026C703,1008 700,992 693,977C686,962 677,948 666,937C655,926 642,917 627,911C612,904 595,901 578,901C560,901 544,904 529,911C514,917 501,926 490,937C479,948 470,962 464,977C457,992 454,1008 454,1026M454,314C454,331 457,348 464,363C470,378 479,392 490,403C501,414 514,423 529,430C544,437 560,440 578,440C595,440 612,437 627,430C642,423 655,414 666,403C677,392 686,378 693,363C700,348 703,331 703,314C703,296 700,280 693,265C686,250 677,236 666,225C655,214 642,205 627,199C612,192 595,189 578,189C560,189 544,192 529,199C514,205 501,214 490,225C479,236 470,250 464,265C457,280 454,296 454,314z" unicode="÷" id="glyph2780"></glyph><glyph d="M912,884C953,839 984,784 1006,721C1028,657 1039,586 1039,507C1039,427 1028,355 1006,291C983,227 951,172 910,127C868,82 817,47 758,23C698,-2 631,-14 557,-14C506,-14 459,-8 416,3C372,14 332,31 296,52l-55,-74C226,-41 209,-55 190,-63C170,-72 150,-76 131,-76l-67,0l145,196C165,166 131,221 108,286C85,351 73,424 73,507C73,586 84,658 107,723C130,787 162,842 204,887C246,932 297,967 357,992C416,1017 483,1029 557,1029C610,1029 659,1023 704,1010C749,997 790,979 827,956l68,91C908,1065 920,1078 931,1086C942,1093 958,1097 979,1097l90,0M246,506C246,399 266,314 305,249l436,590C692,876 631,895 557,895C506,895 462,886 423,868C384,850 352,824 326,791C299,758 279,717 266,669C253,620 246,566 246,506M557,120C607,120 651,129 690,147C728,164 760,190 787,223C813,256 833,297 846,345C859,392 866,446 866,506C866,607 849,689 814,753l-433,-585C428,136 486,120 557,120z" unicode="ø" id="glyph2782"></glyph><glyph d="M300,1013l0,-646C300,290 318,231 353,189C388,147 442,126 513,126C565,126 614,138 660,163C706,188 748,222 787,266l0,747l178,0l0,-1013l-106,0C834,0 818,12 811,37l-14,109C753,97 704,58 649,29C594,-1 532,-16 461,-16C406,-16 357,-7 315,12C272,30 237,56 208,89C179,122 158,163 144,210C129,257 122,310 122,367l0,646M452,1449C474,1449 490,1446 501,1439C512,1432 522,1420 531,1405l149,-242l-102,0C564,1163 553,1165 544,1170C535,1174 526,1181 517,1191l-234,258z" unicode="ù" id="glyph2784"></glyph><glyph d="M300,1013l0,-646C300,290 318,231 353,189C388,147 442,126 513,126C565,126 614,138 660,163C706,188 748,222 787,266l0,747l178,0l0,-1013l-106,0C834,0 818,12 811,37l-14,109C753,97 704,58 649,29C594,-1 532,-16 461,-16C406,-16 357,-7 315,12C272,30 237,56 208,89C179,122 158,163 144,210C129,257 122,310 122,367l0,646M842,1449l-233,-258C600,1181 591,1174 582,1170C573,1165 561,1163 547,1163l-106,0l148,242C598,1420 609,1432 620,1439C631,1446 647,1449 668,1449z" unicode="ú" id="glyph2786"></glyph><glyph d="M300,1013l0,-646C300,290 318,231 353,189C388,147 442,126 513,126C565,126 614,138 660,163C706,188 748,222 787,266l0,747l178,0l0,-1013l-106,0C834,0 818,12 811,37l-14,109C753,97 704,58 649,29C594,-1 532,-16 461,-16C406,-16 357,-7 315,12C272,30 237,56 208,89C179,122 158,163 144,210C129,257 122,310 122,367l0,646M857,1169l-119,0C724,1169 711,1174 698,1183l-128,126l-17,17l-16,-17l-129,-126C404,1180 398,1177 391,1174C384,1171 376,1169 368,1169l-123,0l223,264l166,0z" unicode="û" id="glyph2788"></glyph><glyph d="M300,1013l0,-646C300,290 318,231 353,189C388,147 442,126 513,126C565,126 614,138 660,163C706,188 748,222 787,266l0,747l178,0l0,-1013l-106,0C834,0 818,12 811,37l-14,109C753,97 704,58 649,29C594,-1 532,-16 461,-16C406,-16 357,-7 315,12C272,30 237,56 208,89C179,122 158,163 144,210C129,257 122,310 122,367l0,646M484,1289C484,1274 481,1259 475,1246C469,1233 461,1221 450,1211C439,1201 427,1193 414,1187C400,1181 385,1178 370,1178C355,1178 341,1181 328,1187C315,1193 303,1201 293,1211C282,1221 274,1233 268,1246C262,1259 259,1274 259,1289C259,1304 262,1319 268,1333C274,1347 282,1359 293,1370C303,1380 315,1388 328,1394C341,1400 355,1403 370,1403C385,1403 400,1400 414,1394C427,1388 439,1380 450,1370C461,1359 469,1347 475,1333C481,1319 484,1304 484,1289M843,1289C843,1274 840,1259 834,1246C828,1233 820,1221 810,1211C799,1201 787,1193 774,1187C760,1181 745,1178 730,1178C715,1178 700,1181 687,1187C673,1193 661,1201 651,1211C641,1221 633,1233 627,1246C621,1259 618,1274 618,1289C618,1304 621,1319 627,1333C633,1347 641,1359 651,1370C661,1380 673,1388 687,1394C700,1400 715,1403 730,1403C745,1403 760,1400 774,1394C787,1388 799,1380 810,1370C820,1359 828,1347 834,1333C840,1319 843,1304 843,1289z" unicode="ü" id="glyph2790"></glyph><glyph d="M443,-299C437,-312 430,-323 421,-331C412,-339 398,-343 379,-343l-132,0l185,402l-418,954l154,0C183,1013 195,1009 204,1002C213,994 219,985 223,976l271,-638C500,323 505,309 510,294C514,279 518,264 521,249C526,264 530,279 535,294C540,309 545,324 551,339l263,637C818,987 825,996 835,1003C844,1010 855,1013 866,1013l142,0M825,1449l-233,-258C583,1181 574,1174 565,1170C556,1165 544,1163 530,1163l-106,0l148,242C581,1420 592,1432 603,1439C614,1446 630,1449 651,1449z" unicode="ý" id="glyph2792"></glyph><glyph d="M146,-343l0,1816l178,0l0,-607C366,915 414,955 469,985C524,1014 586,1029 656,1029C714,1029 767,1018 814,996C861,974 902,941 935,898C968,854 994,800 1012,736C1030,671 1039,597 1039,513C1039,438 1029,369 1009,305C989,240 960,185 923,138C886,91 840,54 786,27C731,0 670,-14 602,-14C539,-14 485,-2 441,21C397,44 358,76 324,118l0,-461M597,887C539,887 488,874 445,847C401,820 361,783 324,734l0,-490C357,200 393,169 432,151C471,133 514,124 562,124C656,124 728,158 779,225C830,292 855,388 855,513C855,579 849,636 838,683C826,730 809,769 787,800C765,830 738,852 706,866C674,880 638,887 597,887z" unicode="þ" id="glyph2794"></glyph><glyph d="M443,-299C437,-312 430,-323 421,-331C412,-339 398,-343 379,-343l-132,0l185,402l-418,954l154,0C183,1013 195,1009 204,1002C213,994 219,985 223,976l271,-638C500,323 505,309 510,294C514,279 518,264 521,249C526,264 530,279 535,294C540,309 545,324 551,339l263,637C818,987 825,996 835,1003C844,1010 855,1013 866,1013l142,0M467,1289C467,1274 464,1259 458,1246C452,1233 444,1221 433,1211C422,1201 410,1193 397,1187C383,1181 368,1178 353,1178C338,1178 324,1181 311,1187C298,1193 286,1201 276,1211C265,1221 257,1233 251,1246C245,1259 242,1274 242,1289C242,1304 245,1319 251,1333C257,1347 265,1359 276,1370C286,1380 298,1388 311,1394C324,1400 338,1403 353,1403C368,1403 383,1400 397,1394C410,1388 422,1380 433,1370C444,1359 452,1347 458,1333C464,1319 467,1304 467,1289M826,1289C826,1274 823,1259 817,1246C811,1233 803,1221 793,1211C782,1201 770,1193 757,1187C743,1181 728,1178 713,1178C698,1178 683,1181 670,1187C656,1193 644,1201 634,1211C624,1221 616,1233 610,1246C604,1259 601,1274 601,1289C601,1304 604,1319 610,1333C616,1347 624,1359 634,1370C644,1380 656,1388 670,1394C683,1400 698,1403 713,1403C728,1403 743,1400 757,1394C770,1388 782,1380 793,1370C803,1359 811,1347 817,1333C823,1319 826,1304 826,1289z" unicode="ÿ" id="glyph2796"></glyph><glyph d="M1380,-211C1385,-211 1389,-212 1392,-215C1395,-218 1397,-221 1398,-224l28,-66C1406,-305 1381,-318 1350,-327C1319,-337 1286,-342 1252,-342C1193,-342 1147,-329 1114,-302C1080,-276 1063,-241 1063,-197C1063,-158 1076,-122 1103,-88C1129,-55 1162,-25 1202,0C1185,0 1172,4 1161,13C1150,22 1142,33 1137,46l-134,346l-643,0l-134,-346C221,34 213,23 202,14C191,5 177,0 160,0l-150,0l573,1433l197,0l573,-1433l-37,0C1303,-7 1289,-16 1275,-26C1261,-37 1248,-48 1237,-61C1226,-74 1216,-89 1209,-104C1202,-120 1198,-137 1198,-154C1198,-179 1206,-199 1223,-213C1239,-228 1261,-235 1289,-235C1304,-235 1317,-234 1327,-231C1337,-229 1345,-226 1352,-223C1359,-220 1364,-218 1369,-215C1373,-212 1377,-211 1380,-211M414,532l535,0l-225,583C709,1151 695,1196 681,1250C674,1223 667,1198 660,1175C653,1152 646,1131 639,1114z" unicode="Ą" id="glyph2798"></glyph><glyph d="M890,0C877,-7 863,-16 849,-26C835,-37 822,-48 811,-61C800,-74 790,-89 783,-104C776,-120 772,-137 772,-154C772,-179 780,-199 797,-213C813,-228 835,-235 863,-235C878,-235 891,-234 901,-231C911,-229 919,-226 926,-223C933,-220 938,-218 943,-215C947,-212 951,-211 954,-211C959,-211 963,-212 966,-215C969,-218 971,-221 972,-224l28,-66C980,-305 955,-318 924,-327C893,-337 860,-342 826,-342C767,-342 721,-329 688,-302C654,-276 637,-241 637,-197C637,-178 641,-159 648,-140C655,-121 666,-103 679,-86C692,-69 707,-53 725,-38C742,-23 761,-10 782,3C766,8 755,21 748,42l-20,94C701,112 675,91 650,72C625,53 598,37 570,24C542,11 512,1 481,-6C449,-13 414,-16 375,-16C336,-16 299,-10 265,1C230,12 200,28 175,50C150,72 130,100 115,134C100,167 92,207 92,253C92,293 103,332 125,369C147,406 183,438 232,467C281,496 345,519 424,538C503,556 600,566 715,569l0,79C715,727 698,786 665,827C631,867 581,887 515,887C472,887 435,882 406,871C376,860 350,847 329,834C307,820 288,808 273,797C257,786 241,780 226,780C214,780 204,783 195,790C186,796 179,804 173,813l-32,57C197,924 257,964 322,991C387,1018 458,1031 537,1031C594,1031 644,1022 688,1003C732,984 769,958 799,925C829,892 852,851 867,804C882,757 890,705 890,648M428,109C459,109 488,112 514,119C540,125 565,134 588,146C611,157 633,171 654,188C675,205 695,224 715,245l0,211C633,453 563,447 506,437C449,426 402,413 366,396C330,379 304,360 288,337C271,314 263,289 263,261C263,234 267,211 276,192C285,173 296,157 311,145C326,132 343,123 363,118C383,112 405,109 428,109z" unicode="ą" id="glyph2800"></glyph><glyph d="M1184,296C1195,296 1204,292 1213,283l76,-83C1230,132 1159,79 1076,41C992,3 891,-16 773,-16C670,-16 576,2 492,38C408,73 336,123 277,188C218,252 172,329 139,419C106,509 90,608 90,716C90,824 108,923 143,1013C178,1103 227,1180 290,1245C353,1310 429,1360 518,1396C606,1431 703,1449 810,1449C915,1449 1006,1433 1083,1400C1159,1367 1227,1323 1286,1267l-63,-89C1218,1171 1213,1166 1207,1162C1201,1157 1192,1155 1181,1155C1172,1155 1163,1158 1154,1165C1144,1171 1132,1179 1119,1188C1106,1197 1090,1207 1072,1218C1054,1229 1033,1239 1008,1248C983,1257 955,1265 922,1272C889,1278 852,1281 809,1281C732,1281 662,1268 599,1242C535,1215 480,1178 434,1129C388,1080 352,1021 327,951C301,881 288,803 288,716C288,627 301,547 327,477C352,407 387,348 432,300C476,251 528,214 589,189C650,164 715,151 785,151C828,151 866,154 900,159C934,164 966,171 995,182C1024,193 1051,206 1076,223C1101,239 1126,258 1151,281C1162,291 1173,296 1184,296M1147,1782l-294,-216C842,1558 832,1553 823,1550C814,1547 803,1546 789,1546l-138,0l211,203C869,1756 875,1761 881,1765C886,1769 892,1772 898,1775C904,1778 911,1780 918,1781C925,1782 935,1782 946,1782z" unicode="Ć" id="glyph2802"></glyph><glyph d="M837,833C832,826 826,820 821,816C816,812 808,810 798,810C788,810 777,814 766,823C754,831 739,840 721,850C703,860 681,869 656,878C630,886 598,890 561,890C512,890 468,881 430,864C392,846 360,820 335,787C309,754 290,713 277,666C264,619 257,566 257,507C257,446 264,391 278,344C292,296 312,256 337,224C362,191 393,167 430,150C466,133 507,124 552,124C595,124 631,129 659,140C687,150 710,161 729,174C748,187 763,198 775,209C787,219 799,224 811,224C826,224 838,218 845,207l50,-65C851,88 796,49 730,24C664,-1 594,-14 521,-14C458,-14 399,-2 345,21C290,44 243,78 203,123C163,167 132,221 109,286C86,351 74,424 74,507C74,582 85,652 106,716C127,780 157,835 198,882C238,928 288,964 347,990C406,1016 474,1029 551,1029C622,1029 684,1018 739,995C794,972 842,939 884,897M840,1449l-233,-258C598,1181 589,1174 580,1170C571,1165 559,1163 545,1163l-106,0l148,242C596,1420 607,1432 618,1439C629,1446 645,1449 666,1449z" unicode="ć" id="glyph2804"></glyph><glyph d="M1030,-211C1035,-211 1039,-212 1042,-215C1045,-218 1047,-221 1048,-224l28,-66C1056,-305 1031,-318 1000,-327C969,-337 936,-342 902,-342C843,-342 797,-329 764,-302C730,-276 713,-241 713,-197C713,-158 726,-122 753,-88C779,-55 812,-25 852,0l-678,0l0,1433l883,0l0,-158l-688,0l0,-476l557,0l0,-152l-557,0l0,-489l688,0l0,-158l-91,0C953,-7 939,-16 925,-26C911,-37 898,-48 887,-61C876,-74 866,-89 859,-104C852,-120 848,-137 848,-154C848,-179 856,-199 873,-213C889,-228 911,-235 939,-235C954,-235 967,-234 977,-231C987,-229 995,-226 1002,-223C1009,-220 1014,-218 1019,-215C1023,-212 1027,-211 1030,-211z" unicode="Ę" id="glyph2806"></glyph><glyph d="M745,-211C750,-211 754,-212 757,-215C760,-218 762,-221 763,-224l28,-66C771,-305 746,-318 715,-327C684,-337 651,-342 617,-342C558,-342 512,-329 479,-302C445,-276 428,-241 428,-197C428,-162 439,-128 461,-97C483,-66 511,-39 546,-14C477,-13 414,0 357,24C299,48 249,83 207,129C165,175 132,231 109,298C86,365 74,441 74,527C74,598 85,664 107,725C128,786 159,840 200,885C241,930 290,965 349,991C408,1016 474,1029 547,1029C608,1029 664,1019 715,999C766,978 811,949 848,911C885,872 915,825 936,769C957,712 967,648 967,576C967,548 964,529 958,520C952,511 941,506 924,506l-674,0C251,442 260,386 276,339C292,292 314,252 342,221C370,189 403,165 442,150C481,134 524,126 572,126C617,126 655,131 688,142C720,152 748,163 771,175C794,187 814,198 830,209C845,219 859,224 870,224C885,224 896,218 904,207l50,-65C921,102 880,70 831,47C782,23 730,6 675,-3C662,-10 649,-19 636,-29C623,-40 611,-51 600,-64C589,-77 580,-91 573,-106C566,-121 563,-137 563,-154C563,-179 571,-199 588,-213C604,-228 626,-235 654,-235C669,-235 682,-234 692,-231C702,-229 710,-226 717,-223C724,-220 729,-218 734,-215C738,-212 742,-211 745,-211M551,898C465,898 397,873 348,824C299,774 268,705 256,617l551,0C807,658 801,696 790,731C779,765 762,795 740,820C718,845 691,864 660,878C628,891 592,898 551,898z" unicode="ę" id="glyph2808"></glyph><glyph d="M344,1013l0,-1013l-178,0l0,1013z" unicode="ı" id="glyph2810"></glyph><glyph d="M425,805l384,196l0,-129C809,853 800,838 782,829l-357,-188l0,-478l620,0l0,-163l-814,0l0,554l-187,-95l0,133C44,609 52,622 69,631l162,86l0,716l194,0z" unicode="Ł" id="glyph2812"></glyph><glyph d="M409,1473l0,-574l178,77l0,-102C587,863 585,855 581,848C577,841 570,835 560,830l-151,-67l0,-763l-178,0l0,697l-177,-76l0,105C54,745 62,759 79,766l152,68l0,639z" unicode="ł" id="glyph2814"></glyph><glyph d="M274,1433C291,1433 304,1431 313,1427C321,1422 330,1413 341,1400l830,-1080C1169,337 1168,354 1167,371C1166,387 1166,403 1166,418l0,1015l170,0l0,-1433l-98,0C1223,0 1210,3 1200,8C1189,13 1179,22 1169,35l-829,1079C341,1097 342,1081 343,1065C344,1049 344,1034 344,1021l0,-1021l-170,0l0,1433l100,0M1122,1782l-294,-216C817,1558 807,1553 798,1550C789,1547 778,1546 764,1546l-138,0l211,203C844,1756 850,1761 856,1765C861,1769 867,1772 873,1775C879,1778 886,1780 893,1781C900,1782 910,1782 921,1782z" unicode="Ń" id="glyph2816"></glyph><glyph d="M146,0l0,1013l106,0C277,1013 293,1001 300,976l14,-110C358,915 407,954 462,984C516,1014 579,1029 650,1029C705,1029 754,1020 797,1002C839,983 874,957 903,924C931,890 952,849 967,802C982,755 989,702 989,645l0,-645l-178,0l0,645C811,722 794,781 759,824C724,866 670,887 598,887C545,887 496,874 451,849C405,824 363,789 324,746l0,-746M859,1449l-233,-258C617,1181 608,1174 599,1170C590,1165 578,1163 564,1163l-106,0l148,242C615,1420 626,1432 637,1439C648,1446 664,1449 685,1449z" unicode="ń" id="glyph2818"></glyph><glyph d="M2087,1433l0,-158l-688,0l0,-476l557,0l0,-152l-557,0l0,-489l688,0l0,-158l-860,0l0,240C1171,160 1101,98 1016,53C931,8 835,-14 728,-14C633,-14 547,4 469,40C391,75 324,125 268,190C212,254 169,331 138,421C107,510 92,609 92,716C92,823 107,922 138,1012C169,1101 212,1179 268,1244C324,1309 391,1359 469,1395C547,1431 633,1449 728,1449C835,1449 931,1427 1016,1382C1101,1337 1171,1274 1227,1193l0,240M1204,716C1204,804 1193,883 1172,954C1151,1024 1120,1084 1081,1133C1041,1182 993,1220 937,1247C880,1273 817,1286 748,1286C679,1286 616,1273 560,1247C503,1220 455,1182 415,1133C375,1084 344,1024 323,954C301,883 290,804 290,716C290,628 301,549 323,479C344,408 375,349 415,300C455,251 503,213 560,187C616,161 679,148 748,148C817,148 880,161 937,187C993,213 1041,251 1081,300C1120,349 1151,408 1172,479C1193,549 1204,628 1204,716z" unicode="Œ" id="glyph2820"></glyph><glyph d="M1268,1029C1323,1029 1374,1018 1421,997C1468,976 1508,945 1543,904C1577,863 1604,814 1624,756C1643,697 1653,631 1653,556C1653,529 1650,510 1645,501C1640,491 1629,486 1612,486l-627,0C988,425 997,373 1012,328C1027,283 1048,245 1074,215C1099,185 1130,163 1165,148C1200,133 1239,126 1282,126C1323,126 1358,131 1388,142C1417,152 1443,163 1464,175C1485,187 1504,198 1519,209C1534,219 1547,224 1559,224C1573,224 1584,218 1592,207l51,-65C1621,115 1596,92 1567,73C1538,53 1507,37 1474,24C1441,11 1406,2 1371,-4C1336,-11 1301,-14 1266,-14C1187,-14 1115,5 1052,44C988,82 938,141 901,220C865,145 815,88 751,47C686,6 608,-14 517,-14C450,-14 390,-2 335,23C280,47 234,82 195,127C156,172 125,227 104,291C83,355 72,427 72,507C72,586 83,658 104,723C125,787 156,842 196,887C235,932 283,967 339,992C394,1017 456,1029 524,1029C611,1029 687,1009 750,969C813,928 863,871 898,798C931,868 979,924 1042,966C1104,1008 1179,1029 1268,1029M534,125C627,125 696,159 741,226C786,293 809,386 809,506C809,566 803,620 792,668C781,715 764,755 741,788C718,821 690,846 655,863C620,880 580,889 534,889C487,889 446,880 411,863C376,846 348,821 325,788C302,755 284,715 273,668C262,620 256,566 256,506C256,386 279,293 325,226C370,159 440,125 534,125M1262,898C1221,898 1185,891 1153,878C1121,864 1094,844 1071,818C1048,792 1029,760 1015,723C1001,686 992,644 987,597l508,0C1495,640 1490,681 1480,718C1469,755 1454,786 1434,813C1414,840 1390,861 1361,876C1332,891 1299,898 1262,898z" unicode="œ" id="glyph2822"></glyph><glyph d="M908,1209C902,1199 896,1192 889,1187C882,1182 874,1179 863,1179C852,1179 839,1185 824,1196C809,1207 790,1220 767,1234C744,1247 716,1260 684,1271C651,1282 612,1288 566,1288C523,1288 484,1282 451,1271C418,1259 390,1243 368,1223C345,1203 328,1180 317,1153C306,1126 300,1096 300,1065C300,1025 310,992 330,966C349,939 375,917 408,898C440,879 477,863 518,850C559,836 601,822 644,807C687,792 729,776 770,758C811,739 847,716 880,688C912,660 938,626 958,585C977,544 987,494 987,435C987,372 976,314 955,259C934,204 903,156 862,115C821,74 770,42 711,19C651,-4 583,-16 507,-16C414,-16 330,1 254,35C177,68 112,114 58,171l56,92C119,270 126,277 134,282C141,287 150,289 159,289C173,289 189,282 207,267C225,252 248,235 275,217C302,199 334,183 373,168C411,153 458,145 513,145C559,145 600,151 636,164C672,177 703,195 728,218C753,241 772,268 785,300C798,332 805,368 805,407C805,450 795,486 776,514C756,541 730,564 698,583C666,602 630,618 589,631C548,644 506,657 463,671C420,684 378,700 337,718C296,736 259,759 227,788C195,817 169,853 150,896C130,939 120,992 120,1055C120,1106 130,1155 150,1202C169,1249 198,1291 235,1328C272,1365 319,1394 374,1416C429,1438 492,1449 563,1449C643,1449 716,1436 782,1411C848,1386 906,1349 955,1301M920,1782l-294,-216C615,1558 605,1553 596,1550C587,1547 576,1546 562,1546l-138,0l211,203C642,1756 648,1761 654,1765C659,1769 665,1772 671,1775C677,1778 684,1780 691,1781C698,1782 708,1782 719,1782z" unicode="Ś" id="glyph2824"></glyph><glyph d="M726,846C718,831 706,824 689,824C679,824 668,828 655,835C642,842 627,851 609,860C590,869 568,877 543,885C518,892 488,896 453,896C423,896 396,892 372,885C348,877 328,866 311,853C294,840 281,824 272,807C263,789 258,770 258,749C258,723 266,701 281,684C296,667 315,652 340,639C365,626 393,615 424,606C455,596 488,586 521,575C554,564 586,551 617,538C648,525 676,508 701,488C726,468 746,444 761,415C776,386 783,351 783,310C783,263 775,220 758,181C741,141 717,107 684,78C651,49 611,26 564,9C517,-8 462,-16 400,-16C329,-16 265,-4 208,19C151,42 102,71 62,107l42,68C109,184 116,190 123,195C130,200 140,202 152,202C164,202 177,197 190,188C203,179 220,168 239,157C258,146 281,135 308,126C335,117 368,112 409,112C444,112 474,117 500,126C526,135 548,147 565,162C582,177 595,195 604,215C612,235 616,256 616,279C616,307 609,330 594,349C579,367 559,383 534,396C509,409 481,420 450,430C418,439 386,449 353,460C320,471 287,483 256,497C224,510 196,527 171,548C146,569 127,594 112,625C97,655 89,692 89,735C89,774 97,811 113,847C129,882 152,914 183,941C214,968 251,989 296,1005C341,1021 392,1029 449,1029C516,1029 576,1019 629,998C682,977 727,948 766,911M764,1449l-233,-258C522,1181 513,1174 504,1170C495,1165 483,1163 469,1163l-106,0l148,242C520,1420 531,1432 542,1439C553,1446 569,1449 590,1449z" unicode="ś" id="glyph2826"></glyph><glyph d="M908,1209C902,1199 896,1192 889,1187C882,1182 874,1179 863,1179C852,1179 839,1185 824,1196C809,1207 790,1220 767,1234C744,1247 716,1260 684,1271C651,1282 612,1288 566,1288C523,1288 484,1282 451,1271C418,1259 390,1243 368,1223C345,1203 328,1180 317,1153C306,1126 300,1096 300,1065C300,1025 310,992 330,966C349,939 375,917 408,898C440,879 477,863 518,850C559,836 601,822 644,807C687,792 729,776 770,758C811,739 847,716 880,688C912,660 938,626 958,585C977,544 987,494 987,435C987,372 976,314 955,259C934,204 903,156 862,115C821,74 770,42 711,19C651,-4 583,-16 507,-16C414,-16 330,1 254,35C177,68 112,114 58,171l56,92C119,270 126,277 134,282C141,287 150,289 159,289C173,289 189,282 207,267C225,252 248,235 275,217C302,199 334,183 373,168C411,153 458,145 513,145C559,145 600,151 636,164C672,177 703,195 728,218C753,241 772,268 785,300C798,332 805,368 805,407C805,450 795,486 776,514C756,541 730,564 698,583C666,602 630,618 589,631C548,644 506,657 463,671C420,684 378,700 337,718C296,736 259,759 227,788C195,817 169,853 150,896C130,939 120,992 120,1055C120,1106 130,1155 150,1202C169,1249 198,1291 235,1328C272,1365 319,1394 374,1416C429,1438 492,1449 563,1449C643,1449 716,1436 782,1411C848,1386 906,1349 955,1301M666,1546l-176,0l-238,210l135,0C395,1756 404,1755 413,1753C422,1750 430,1747 436,1743l130,-94C568,1648 570,1646 573,1644C575,1642 577,1640 578,1638C579,1640 581,1642 584,1644C586,1646 588,1648 590,1649l130,94C726,1747 734,1750 743,1753C752,1755 761,1756 769,1756l135,0z" unicode="Š" id="glyph2828"></glyph><glyph d="M726,846C718,831 706,824 689,824C679,824 668,828 655,835C642,842 627,851 609,860C590,869 568,877 543,885C518,892 488,896 453,896C423,896 396,892 372,885C348,877 328,866 311,853C294,840 281,824 272,807C263,789 258,770 258,749C258,723 266,701 281,684C296,667 315,652 340,639C365,626 393,615 424,606C455,596 488,586 521,575C554,564 586,551 617,538C648,525 676,508 701,488C726,468 746,444 761,415C776,386 783,351 783,310C783,263 775,220 758,181C741,141 717,107 684,78C651,49 611,26 564,9C517,-8 462,-16 400,-16C329,-16 265,-4 208,19C151,42 102,71 62,107l42,68C109,184 116,190 123,195C130,200 140,202 152,202C164,202 177,197 190,188C203,179 220,168 239,157C258,146 281,135 308,126C335,117 368,112 409,112C444,112 474,117 500,126C526,135 548,147 565,162C582,177 595,195 604,215C612,235 616,256 616,279C616,307 609,330 594,349C579,367 559,383 534,396C509,409 481,420 450,430C418,439 386,449 353,460C320,471 287,483 256,497C224,510 196,527 171,548C146,569 127,594 112,625C97,655 89,692 89,735C89,774 97,811 113,847C129,882 152,914 183,941C214,968 251,989 296,1005C341,1021 392,1029 449,1029C516,1029 576,1019 629,998C682,977 727,948 766,911M151,1433l123,0C282,1433 290,1431 297,1428C304,1425 310,1421 314,1418l128,-125C449,1287 455,1281 459,1274C462,1277 465,1281 468,1284C470,1287 473,1290 476,1293l128,125C608,1422 614,1426 622,1429C629,1432 637,1433 644,1433l119,0l-223,-264l-166,0z" unicode="š" id="glyph2830"></glyph><glyph d="M726,570l0,-570l-193,0l0,570l-525,863l170,0C195,1433 209,1429 219,1420C229,1411 238,1401 245,1388l328,-557C586,808 598,786 607,765C616,744 624,724 631,704C638,725 646,745 655,766C664,787 675,808 688,831l327,557C1021,1399 1029,1409 1040,1419C1050,1428 1063,1433 1080,1433l172,0M528,1666C528,1651 525,1638 519,1625C513,1612 505,1600 495,1590C485,1580 473,1572 460,1567C446,1561 431,1558 416,1558C402,1558 389,1561 376,1567C363,1572 351,1580 341,1590C331,1600 323,1612 317,1625C311,1638 308,1651 308,1666C308,1681 311,1696 317,1710C323,1723 331,1735 341,1745C351,1755 363,1763 376,1769C389,1775 402,1778 416,1778C431,1778 446,1775 460,1769C473,1763 485,1755 495,1745C505,1735 513,1723 519,1710C525,1696 528,1681 528,1666M954,1666C954,1651 951,1638 945,1625C939,1612 931,1600 921,1590C911,1580 899,1572 886,1567C873,1561 859,1558 844,1558C829,1558 814,1561 801,1567C788,1572 776,1580 766,1590C756,1600 748,1612 743,1625C737,1638 734,1651 734,1666C734,1681 737,1696 743,1710C748,1723 756,1735 766,1745C776,1755 788,1763 801,1769C814,1775 829,1778 844,1778C859,1778 873,1775 886,1769C899,1763 911,1755 921,1745C931,1735 939,1723 945,1710C951,1696 954,1681 954,1666z" unicode="Ÿ" id="glyph2832"></glyph><glyph d="M1172,1433l0,-72C1172,1338 1165,1317 1151,1297l-811,-1139l818,0l0,-158l-1072,0l0,76C86,96 92,115 105,133l812,1142l-793,0l0,158M992,1782l-294,-216C687,1558 677,1553 668,1550C659,1547 648,1546 634,1546l-138,0l211,203C714,1756 720,1761 726,1765C731,1769 737,1772 743,1775C749,1778 756,1780 763,1781C770,1782 780,1782 791,1782z" unicode="Ź" id="glyph2834"></glyph><glyph d="M853,937C853,924 851,912 846,901C841,889 835,878 828,869l-548,-730l553,0l0,-139l-763,0l0,74C70,83 72,93 77,105C81,116 87,127 95,138l551,735l-545,0l0,140l752,0M777,1449l-233,-258C535,1181 526,1174 517,1170C508,1165 496,1163 482,1163l-106,0l148,242C533,1420 544,1432 555,1439C566,1446 582,1449 603,1449z" unicode="ź" id="glyph2836"></glyph><glyph d="M1172,1433l0,-72C1172,1338 1165,1317 1151,1297l-811,-1139l818,0l0,-158l-1072,0l0,76C86,96 92,115 105,133l812,1142l-793,0l0,158M772,1688C772,1672 769,1657 762,1642C755,1627 746,1615 735,1604C724,1593 711,1584 696,1577C681,1570 665,1567 648,1567C632,1567 617,1570 602,1577C587,1584 575,1593 564,1604C553,1615 544,1627 538,1642C531,1657 528,1672 528,1688C528,1705 531,1720 538,1735C544,1750 553,1763 564,1774C575,1785 587,1794 602,1801C617,1808 632,1811 648,1811C665,1811 681,1808 696,1801C711,1794 724,1785 735,1774C746,1763 755,1750 762,1735C769,1720 772,1705 772,1688z" unicode="Ż" id="glyph2838"></glyph><glyph d="M853,937C853,924 851,912 846,901C841,889 835,878 828,869l-548,-730l553,0l0,-139l-763,0l0,74C70,83 72,93 77,105C81,116 87,127 95,138l551,735l-545,0l0,140l752,0M614,1338C614,1321 611,1305 604,1290C597,1275 587,1261 576,1250C564,1239 550,1230 535,1223C520,1216 503,1213 486,1213C469,1213 453,1216 438,1223C423,1230 409,1239 398,1250C387,1261 378,1275 371,1290C364,1305 361,1321 361,1338C361,1355 364,1372 371,1388C378,1403 387,1417 398,1429C409,1440 423,1449 438,1456C453,1463 469,1466 486,1466C503,1466 520,1463 535,1456C550,1449 564,1440 576,1429C587,1417 597,1403 604,1388C611,1372 614,1355 614,1338z" unicode="ż" id="glyph2840"></glyph><glyph d="M1172,1433l0,-72C1172,1338 1165,1317 1151,1297l-811,-1139l818,0l0,-158l-1072,0l0,76C86,96 92,115 105,133l812,1142l-793,0l0,158M738,1546l-176,0l-238,210l135,0C467,1756 476,1755 485,1753C494,1750 502,1747 508,1743l130,-94C640,1648 642,1646 645,1644C647,1642 649,1640 650,1638C651,1640 653,1642 656,1644C658,1646 660,1648 662,1649l130,94C798,1747 806,1750 815,1753C824,1755 833,1756 841,1756l135,0z" unicode="Ž" id="glyph2842"></glyph><glyph d="M853,937C853,924 851,912 846,901C841,889 835,878 828,869l-548,-730l553,0l0,-139l-763,0l0,74C70,83 72,93 77,105C81,116 87,127 95,138l551,735l-545,0l0,140l752,0M180,1433l123,0C311,1433 319,1431 326,1428C333,1425 339,1421 343,1418l128,-125C478,1287 484,1281 488,1274C491,1277 494,1281 497,1284C499,1287 502,1290 505,1293l128,125C637,1422 643,1426 651,1429C658,1432 666,1433 673,1433l119,0l-223,-264l-166,0z" unicode="ž" id="glyph2844"></glyph><glyph d="M673,768l-89,-730C567,-99 519,-198 440,-259C360,-321 249,-352 106,-352l0,94C106,-220 126,-201 166,-201C196,-201 225,-197 252,-188C279,-179 303,-165 324,-146C345,-127 362,-102 377,-71C392,-40 402,-2 407,43l89,720l-155,15C327,779 317,784 310,793C303,801 299,811 299,824l0,73l213,0l21,168C549,1197 596,1295 675,1359C753,1422 865,1454 1010,1454l0,-98C1010,1337 1005,1323 996,1316C987,1308 972,1304 951,1304C920,1304 892,1300 865,1291C838,1282 813,1268 792,1249C771,1230 753,1205 738,1174C723,1143 712,1104 706,1059l-22,-162l322,0l0,-129z" unicode="ƒ" id="glyph2846"></glyph><glyph d="M612,1169l-119,0C479,1169 466,1174 453,1183l-128,126l-17,17l-16,-17l-129,-126C159,1180 153,1177 146,1174C139,1171 131,1169 123,1169l-123,0l223,264l166,0z" unicode="ˆ" id="glyph2848"></glyph><glyph d="M0,1433l123,0C131,1433 139,1431 146,1428C153,1425 159,1421 163,1418l128,-125C298,1287 304,1281 308,1274C311,1277 314,1281 317,1284C319,1287 322,1290 325,1293l128,125C457,1422 463,1426 471,1429C478,1432 486,1433 493,1433l119,0l-223,-264l-166,0z" unicode="ˇ" id="glyph2850"></glyph><glyph d="M20,1348l574,0l0,-117l-574,0z" unicode="ˉ" id="glyph2852"></glyph><glyph d="M306,1164C255,1164 212,1171 177,1186C142,1200 114,1219 93,1244C71,1268 55,1296 46,1329C37,1362 32,1396 32,1433l126,0C158,1411 160,1391 165,1372C170,1353 178,1336 189,1323C200,1310 216,1299 235,1292C254,1284 277,1280 306,1280C335,1280 359,1284 378,1292C397,1299 412,1310 423,1323C434,1336 442,1353 447,1372C452,1391 454,1411 454,1433l126,0C580,1396 575,1362 566,1329C557,1296 541,1268 520,1244C498,1219 470,1200 435,1186C400,1171 357,1164 306,1164z" unicode="˘" id="glyph2854"></glyph><glyph d="M433,1338C433,1321 430,1305 423,1290C416,1275 406,1261 395,1250C383,1239 369,1230 354,1223C339,1216 322,1213 305,1213C288,1213 272,1216 257,1223C242,1230 228,1239 217,1250C206,1261 197,1275 190,1290C183,1305 180,1321 180,1338C180,1355 183,1372 190,1388C197,1403 206,1417 217,1429C228,1440 242,1449 257,1456C272,1463 288,1466 305,1466C322,1466 339,1463 354,1456C369,1449 383,1440 395,1429C406,1417 416,1403 423,1388C430,1372 433,1355 433,1338z" unicode="˙" id="glyph2856"></glyph><glyph d="M106,1315C106,1343 111,1368 122,1391C133,1414 147,1433 166,1450C184,1467 205,1480 229,1489C253,1498 278,1502 305,1502C332,1502 358,1498 383,1489C407,1480 428,1467 447,1450C466,1433 480,1414 491,1391C502,1368 507,1343 507,1315C507,1288 502,1263 491,1240C480,1217 466,1198 447,1182C428,1166 407,1154 383,1145C358,1136 332,1131 305,1131C278,1131 253,1136 229,1145C205,1154 184,1166 166,1182C147,1198 133,1217 122,1240C111,1263 106,1288 106,1315M206,1315C206,1286 215,1262 233,1243C251,1224 276,1215 307,1215C337,1215 361,1224 380,1243C398,1262 407,1286 407,1315C407,1345 398,1369 380,1388C361,1407 337,1416 307,1416C276,1416 251,1407 233,1388C215,1369 206,1345 206,1315z" unicode="˚" id="glyph2858"></glyph><glyph d="M451,-211C456,-211 460,-212 463,-215C466,-218 468,-221 469,-224l28,-66C477,-305 452,-318 421,-327C390,-337 357,-342 323,-342C264,-342 218,-329 185,-302C151,-276 134,-241 134,-197C134,-176 138,-156 147,-136C155,-117 166,-98 181,-80C195,-62 212,-45 232,-29C251,-14 272,0 295,13l92,-13C374,-7 360,-16 346,-26C332,-37 319,-48 308,-61C297,-74 287,-89 280,-104C273,-120 269,-137 269,-154C269,-179 277,-199 294,-213C310,-228 332,-235 360,-235C375,-235 388,-234 398,-231C408,-229 416,-226 423,-223C430,-220 435,-218 440,-215C444,-212 448,-211 451,-211z" unicode="˛" id="glyph2860"></glyph><glyph d="M417,1325C441,1325 460,1332 473,1346C486,1360 492,1382 493,1411l108,0C601,1380 597,1351 589,1325C580,1298 568,1276 553,1257C537,1238 518,1224 497,1214C475,1203 451,1198 424,1198C401,1198 379,1203 359,1213C338,1222 319,1233 301,1244C283,1255 266,1266 250,1276C234,1285 218,1290 203,1290C155,1290 130,1261 129,1202l-111,0C18,1234 22,1263 31,1290C40,1316 52,1339 68,1358C84,1377 103,1391 125,1402C147,1412 171,1417 197,1417C220,1417 242,1412 263,1403C283,1393 302,1382 320,1371C338,1360 355,1349 371,1340C386,1330 402,1325 417,1325z" unicode="˜" id="glyph2862"></glyph><glyph d="M429,1449l-199,-258C222,1180 213,1173 204,1169C194,1165 182,1163 168,1163l-74,0l138,242C241,1420 251,1432 262,1439C273,1446 289,1449 311,1449M743,1449l-243,-258C491,1181 482,1174 473,1170C464,1165 452,1163 439,1163l-86,0l180,242C544,1420 554,1431 564,1438C574,1445 590,1449 612,1449z" unicode="˝" id="glyph2864"></glyph><glyph d="M1199,1013l0,-72C1199,926 1194,912 1184,900C1174,888 1159,882 1140,882l-136,0l0,-882l-178,0l0,882l-397,0l0,-638C429,165 409,102 369,57C328,11 265,-12 179,-12C156,-12 134,-10 112,-6C90,-2 69,6 48,17l7,75C56,98 58,103 61,107C64,110 68,113 73,115C78,116 85,117 94,118C103,118 114,118 127,118C171,118 203,128 222,149C241,170 250,202 250,246l0,636l-189,0l0,64C61,953 63,961 66,969C69,977 73,984 79,991C84,997 91,1002 100,1007C109,1011 119,1013 130,1013z" unicode="π" id="glyph2866"></glyph><glyph d="M156,655l800,0l0,-130l-800,0z" unicode="–" id="glyph2868"></glyph><glyph d="M156,655l1330,0l0,-130l-1330,0z" unicode="—" id="glyph2870"></glyph><glyph d="M114,1012C95,1044 81,1076 72,1109C63,1141 58,1173 58,1205C58,1265 73,1323 103,1378C132,1433 174,1483 227,1529l55,-34C287,1492 291,1488 293,1484C294,1480 295,1476 295,1472C295,1463 292,1455 285,1448C274,1435 264,1421 254,1406C244,1391 235,1376 227,1360C219,1343 213,1326 208,1308C203,1290 201,1271 201,1251C201,1230 204,1208 211,1185C217,1162 228,1138 243,1113C248,1106 250,1098 250,1090C250,1074 241,1063 223,1056z" unicode="‘" id="glyph2872"></glyph><glyph d="M271,1508C290,1476 304,1444 313,1412C322,1380 326,1348 326,1316C326,1255 311,1198 282,1143C252,1088 211,1037 158,991l-55,34C98,1028 94,1032 93,1036C91,1040 90,1044 90,1048C90,1057 93,1065 100,1072C111,1085 121,1099 131,1114C141,1129 150,1144 158,1161C166,1177 172,1194 177,1212C182,1230 184,1249 184,1269C184,1290 181,1312 175,1335C168,1358 157,1382 142,1407C137,1414 135,1422 135,1429C135,1445 144,1457 162,1464z" unicode="’" id="glyph2874"></glyph><glyph d="M271,241C290,209 304,177 313,145C322,113 326,81 326,49C326,-12 311,-69 282,-124C252,-179 211,-230 158,-276l-55,34C98,-239 94,-235 93,-231C91,-227 90,-223 90,-219C90,-210 93,-202 100,-195C111,-182 121,-168 131,-153C141,-138 150,-123 158,-106C166,-90 172,-73 177,-55C182,-37 184,-18 184,2C184,23 181,45 175,68C168,91 157,115 142,140C137,147 135,155 135,162C135,178 144,190 162,197z" unicode="‚" id="glyph2876"></glyph><glyph d="M114,1012C95,1044 81,1076 72,1109C63,1141 58,1173 58,1205C58,1265 73,1323 103,1378C132,1433 174,1483 227,1529l55,-34C287,1492 291,1488 293,1484C294,1480 295,1476 295,1472C295,1463 292,1455 285,1448C274,1435 264,1421 254,1406C244,1391 235,1376 227,1360C219,1343 213,1326 208,1308C203,1290 201,1271 201,1251C201,1230 204,1208 211,1185C217,1162 228,1138 243,1113C248,1106 250,1098 250,1090C250,1074 241,1063 223,1056M418,1012C399,1044 385,1076 376,1109C367,1141 362,1173 362,1205C362,1265 377,1323 407,1378C436,1433 478,1483 531,1529l55,-34C591,1492 595,1488 597,1484C598,1480 599,1476 599,1472C599,1463 596,1455 589,1448C578,1435 568,1421 558,1406C548,1391 539,1376 531,1360C523,1343 517,1326 512,1308C507,1290 505,1271 505,1251C505,1230 508,1208 515,1185C521,1162 532,1138 547,1113C552,1106 554,1098 554,1090C554,1074 545,1063 527,1056z" unicode="“" id="glyph2878"></glyph><glyph d="M271,1508C290,1476 304,1444 313,1412C322,1380 326,1348 326,1316C326,1255 311,1198 282,1143C252,1088 211,1037 158,991l-55,34C98,1028 94,1032 93,1036C91,1040 90,1044 90,1048C90,1057 93,1065 100,1072C111,1085 121,1099 131,1114C141,1129 150,1144 158,1161C166,1177 172,1194 177,1212C182,1230 184,1249 184,1269C184,1290 181,1312 175,1335C168,1358 157,1382 142,1407C137,1414 135,1422 135,1429C135,1445 144,1457 162,1464M575,1508C594,1476 608,1444 617,1412C626,1380 630,1348 630,1316C630,1255 615,1198 586,1143C556,1088 515,1037 462,991l-55,34C402,1028 398,1032 397,1036C395,1040 394,1044 394,1048C394,1057 397,1065 404,1072C415,1085 425,1099 435,1114C445,1129 454,1144 462,1161C470,1177 476,1194 481,1212C486,1230 488,1249 488,1269C488,1290 485,1312 479,1335C472,1358 461,1382 446,1407C441,1414 439,1422 439,1429C439,1445 448,1457 466,1464z" unicode="”" id="glyph2880"></glyph><glyph d="M271,241C290,209 304,177 313,145C322,113 326,81 326,49C326,-12 311,-69 282,-124C252,-179 211,-230 158,-276l-55,34C98,-239 94,-235 93,-231C91,-227 90,-223 90,-219C90,-210 93,-202 100,-195C111,-182 121,-168 131,-153C141,-138 150,-123 158,-106C166,-90 172,-73 177,-55C182,-37 184,-18 184,2C184,23 181,45 175,68C168,91 157,115 142,140C137,147 135,155 135,162C135,178 144,190 162,197M575,241C594,209 608,177 617,145C626,113 630,81 630,49C630,-12 615,-69 586,-124C556,-179 515,-230 462,-276l-55,34C402,-239 398,-235 397,-231C395,-227 394,-223 394,-219C394,-210 397,-202 404,-195C415,-182 425,-168 435,-153C445,-138 454,-123 462,-106C470,-90 476,-73 481,-55C486,-37 488,-18 488,2C488,23 485,45 479,68C472,91 461,115 446,140C441,147 439,155 439,162C439,178 448,190 466,197z" unicode="„" id="glyph2882"></glyph><glyph d="M118,918C118,939 125,957 139,973C152,989 173,997 202,997C225,997 249,996 274,993C299,990 325,986 352,983C379,980 405,976 432,972C459,968 485,965 511,963l-24,488C514,1466 545,1474 580,1474C617,1474 648,1466 673,1451l-23,-488C702,968 755,974 809,983C862,992 912,996 958,997C987,997 1009,989 1022,973C1035,957 1042,939 1042,918l0,-60l-392,0l0,-416l23,-777C648,-350 617,-358 580,-358C545,-358 514,-350 487,-335l24,777l0,416l-393,0z" unicode="†" id="glyph2884"></glyph><glyph d="M118,918C118,939 125,957 139,973C152,989 173,997 202,997C225,997 249,996 274,993C299,990 325,986 352,983C379,980 405,976 432,972C459,968 485,965 511,963l-24,488C514,1466 545,1474 580,1474C617,1474 648,1466 673,1451l-23,-488C702,968 755,974 809,983C862,992 912,996 958,997C987,997 1009,989 1022,973C1035,957 1042,939 1042,918l0,-60l-392,0l0,-600l392,0l0,-60C1042,177 1035,159 1022,143C1009,127 987,119 958,119C912,120 862,124 809,133C755,141 702,147 650,152l23,-487C648,-350 617,-358 580,-358C545,-358 514,-350 487,-335l24,487C459,147 406,141 352,133C298,124 248,120 202,119C173,119 152,127 139,143C125,159 118,177 118,198l0,60l393,0l0,600l-393,0z" unicode="‡" id="glyph2886"></glyph><glyph d="M208,595C208,646 218,695 238,740C257,785 284,825 317,859C350,892 390,919 435,939C480,958 527,968 578,968C629,968 678,958 723,939C768,919 808,892 842,859C875,825 902,785 922,740C941,695 951,646 951,595C951,544 941,496 922,451C902,406 875,366 842,333C808,300 768,273 723,254C678,234 629,224 578,224C527,224 480,234 435,254C390,273 350,300 317,333C284,366 257,406 238,451C218,496 208,544 208,595z" unicode="•" id="glyph2888"></glyph><glyph d="M88,110C88,127 91,144 98,159C104,174 113,188 124,199C135,210 148,219 163,226C178,233 195,236 212,236C229,236 246,233 261,226C276,219 290,210 301,199C312,188 321,174 328,159C334,144 337,127 337,110C337,92 334,76 328,61C321,46 312,32 301,21C290,10 276,1 261,-5C246,-12 229,-15 212,-15C195,-15 178,-12 163,-5C148,1 135,10 124,21C113,32 104,46 98,61C91,76 88,92 88,110M1117,110C1117,127 1120,144 1127,159C1133,174 1142,188 1153,199C1164,210 1177,219 1192,226C1207,233 1224,236 1241,236C1258,236 1275,233 1290,226C1305,219 1319,210 1330,199C1341,188 1350,174 1357,159C1363,144 1366,127 1366,110C1366,92 1363,76 1357,61C1350,46 1341,32 1330,21C1319,10 1305,1 1290,-5C1275,-12 1258,-15 1241,-15C1224,-15 1207,-12 1192,-5C1177,1 1164,10 1153,21C1142,32 1133,46 1127,61C1120,76 1117,92 1117,110M602,110C602,127 605,144 612,159C618,174 627,188 638,199C649,210 662,219 677,226C692,233 709,236 726,236C743,236 760,233 775,226C790,219 804,210 815,199C826,188 835,174 842,159C848,144 851,127 851,110C851,92 848,76 842,61C835,46 826,32 815,21C804,10 790,1 775,-5C760,-12 743,-15 726,-15C709,-15 692,-12 677,-5C662,1 649,10 638,21C627,32 618,46 612,61C605,76 602,92 602,110z" unicode="…" id="glyph2890"></glyph><glyph d="M707,1087C707,1031 698,981 681,937C664,892 641,855 612,825C583,794 549,771 510,755C471,739 431,731 389,731C344,731 302,739 264,755C225,771 192,794 163,825C134,855 112,892 96,937C80,981 72,1031 72,1087C72,1144 80,1195 96,1240C112,1285 134,1322 163,1353C192,1384 225,1407 264,1423C302,1439 344,1447 389,1447C434,1447 476,1439 515,1423C554,1407 587,1384 616,1353C644,1322 666,1285 683,1240C699,1195 707,1144 707,1087M568,1087C568,1131 563,1168 554,1199C545,1230 532,1255 516,1275C499,1294 480,1308 459,1317C437,1326 414,1330 389,1330C364,1330 341,1326 320,1317C298,1308 279,1294 263,1275C247,1255 235,1230 226,1199C217,1168 212,1131 212,1087C212,1044 217,1007 226,977C235,946 247,922 263,903C279,884 298,870 320,862C341,853 364,849 389,849C414,849 437,853 459,862C480,870 499,884 516,903C532,922 545,946 554,977C563,1007 568,1044 568,1087M1213,1403C1219,1412 1227,1419 1236,1425C1245,1430 1258,1433 1274,1433l128,0l-1047,-1404C348,20 340,13 331,8C322,3 311,0 298,0l-132,0M1499,338C1499,282 1490,232 1473,188C1456,144 1433,107 1404,77C1375,46 1341,23 1303,7C1264,-9 1224,-17 1182,-17C1137,-17 1095,-9 1057,7C1018,23 985,46 956,77C927,107 905,144 889,188C873,232 865,282 865,338C865,395 873,447 889,492C905,537 927,574 956,605C985,636 1018,659 1057,675C1095,691 1137,699 1182,699C1227,699 1268,691 1307,675C1346,659 1379,636 1408,605C1437,574 1459,537 1475,492C1491,447 1499,395 1499,338M1361,338C1361,382 1356,420 1347,451C1338,482 1325,507 1309,526C1292,545 1273,559 1252,568C1230,577 1207,581 1182,581C1157,581 1134,577 1113,568C1091,559 1072,545 1056,526C1040,507 1028,482 1019,451C1010,420 1005,382 1005,338C1005,295 1010,258 1019,228C1028,198 1040,174 1056,155C1072,136 1091,122 1113,114C1134,105 1157,101 1182,101C1207,101 1230,105 1252,114C1273,122 1292,136 1309,155C1325,174 1338,198 1347,228C1356,258 1361,295 1361,338M2233,338C2233,282 2224,232 2207,188C2190,144 2167,107 2138,77C2109,46 2075,23 2036,7C1997,-9 1957,-17 1915,-17C1870,-17 1828,-9 1790,7C1751,23 1718,46 1689,77C1660,107 1638,144 1622,188C1606,232 1598,282 1598,338C1598,395 1606,447 1622,492C1638,537 1660,574 1689,605C1718,636 1751,659 1790,675C1828,691 1870,699 1915,699C1960,699 2002,691 2041,675C2080,659 2113,636 2142,605C2170,574 2192,537 2209,492C2225,447 2233,395 2233,338M2094,338C2094,382 2089,420 2080,451C2071,482 2058,507 2042,526C2025,545 2006,559 1985,568C1963,577 1940,581 1915,581C1890,581 1867,577 1846,568C1824,559 1805,545 1789,526C1773,507 1761,482 1752,451C1743,420 1738,382 1738,338C1738,295 1743,258 1752,228C1761,198 1773,174 1789,155C1805,136 1824,122 1846,114C1867,105 1890,101 1915,101C1940,101 1963,105 1985,114C2006,122 2025,136 2042,155C2058,174 2071,198 2080,228C2089,258 2094,295 2094,338z" unicode="‰" id="glyph2892"></glyph><glyph d="M138,518l0,23l249,389l58,-28C454,897 461,891 466,884C471,877 473,869 473,860C473,849 470,838 463,827l-159,-261C295,550 285,538 276,529C286,520 295,508 304,493l159,-261C466,227 469,221 471,215C472,209 473,203 473,198C473,179 464,166 445,157l-58,-28z" unicode="‹" id="glyph2894"></glyph><glyph d="M485,541l0,-23l-249,-389l-58,28C159,166 150,179 150,198C150,209 153,221 160,232l159,261C328,509 337,521 346,529C338,536 329,549 319,566l-159,261C153,838 150,850 150,861C150,880 159,893 178,902l58,28z" unicode="›" id="glyph2896"></glyph><glyph d="M-20,53C-33,32 -46,18 -61,11C-76,4 -93,0 -112,0l-76,0l818,1372C642,1391 656,1406 671,1417C686,1428 705,1433 726,1433l77,0z" unicode="⁄" id="glyph2898"></glyph><glyph d="M34,899l147,0C194,983 217,1059 249,1127C280,1194 320,1252 367,1300C414,1347 468,1384 529,1409C590,1434 657,1447 729,1447C818,1447 895,1430 958,1397C1021,1364 1076,1318 1123,1259l-61,-68C1057,1185 1051,1180 1046,1176C1041,1171 1033,1169 1024,1169C1013,1169 1001,1175 989,1188C976,1201 960,1215 939,1230C918,1245 892,1259 860,1272C827,1285 786,1291 736,1291C639,1291 558,1258 494,1191C429,1124 386,1027 365,899l547,0l0,-55C912,832 908,821 899,812C890,802 877,797 861,797l-508,0C352,784 352,770 352,757C351,744 351,730 351,716C351,705 351,695 351,685C351,675 351,665 352,655l467,0l0,-56C819,588 814,577 805,568C796,558 783,553 767,553l-406,0C380,416 421,313 485,244C549,175 630,141 727,141C763,141 795,145 822,152C849,159 873,167 893,178C913,189 930,200 945,213C959,225 971,236 982,247C993,258 1002,267 1011,274C1019,281 1027,284 1035,284C1040,284 1045,283 1049,281C1053,278 1058,275 1063,270l75,-70C1091,132 1033,79 964,42C895,4 812,-15 717,-15C640,-15 570,-2 508,25C446,51 392,89 347,138C302,187 265,246 236,317C207,387 187,466 176,553l-142,0l0,102l134,0C167,665 167,675 167,685C167,695 167,705 167,716C167,729 167,743 168,757C168,770 168,784 169,797l-135,0z" unicode="€" id="glyph2900"></glyph><glyph d="M963,1109C967,1100 971,1091 975,1083C978,1074 981,1065 984,1056C987,1065 990,1074 993,1083C996,1091 1000,1100 1005,1109l169,303C1180,1421 1186,1426 1191,1429C1196,1432 1204,1433 1215,1433l106,0l0,-592l-110,0l0,365l9,75l-183,-336C1028,926 1014,917 993,917l-18,0C954,917 940,926 932,945l-184,333l8,-72l0,-365l-110,0l0,592l106,0C763,1433 771,1432 776,1429C781,1426 787,1421 794,1412M550,1433l0,-105l-180,0l0,-487l-126,0l0,487l-180,0l0,105z" unicode="™" id="glyph2902"></glyph><glyph d="M836,0l0,438C890,448 940,464 985,486C1030,507 1070,535 1103,570C1136,604 1161,645 1180,693C1198,740 1207,795 1207,857C1207,928 1196,991 1173,1046C1150,1100 1118,1145 1077,1182C1036,1218 987,1245 931,1264C874,1283 813,1292 746,1292C679,1292 618,1283 562,1264C505,1245 457,1218 416,1182C375,1145 343,1100 320,1046C297,991 285,928 285,857C285,795 294,740 313,693C331,645 356,604 389,570C422,535 461,507 507,486C552,464 602,448 656,438l0,-438l-504,0C132,0 116,6 104,18C92,29 86,44 86,63l0,100l419,0l0,174C441,352 383,376 332,408C280,440 236,479 200,524C164,569 136,621 117,679C97,737 87,800 87,867C87,952 104,1031 137,1102C170,1173 215,1235 274,1286C332,1337 401,1377 482,1406C563,1435 651,1449 746,1449C841,1449 929,1435 1010,1406C1091,1377 1160,1337 1219,1286C1277,1235 1323,1173 1356,1102C1389,1031 1405,952 1405,867C1405,800 1395,737 1376,679C1356,621 1328,569 1292,524C1255,479 1211,440 1160,408C1108,376 1050,352 986,337l0,-174l420,0l0,-100C1406,44 1400,29 1388,18C1376,6 1360,0 1340,0z" unicode="Ω" id="glyph2904"></glyph><glyph d="M348,1337C374,1355 399,1371 424,1385C448,1399 473,1411 499,1420C525,1429 552,1436 581,1441C610,1446 641,1448 675,1448C735,1448 790,1436 839,1411C888,1386 930,1351 965,1304C1000,1257 1027,1200 1046,1133C1065,1066 1074,989 1074,904C1074,769 1062,646 1038,534C1013,421 977,325 928,244C879,163 817,100 744,55C670,10 584,-13 485,-13C428,-13 375,-3 327,16C278,35 237,62 202,98C167,133 140,176 121,227C102,278 92,335 92,398C92,475 105,547 130,614C155,681 191,740 236,789C281,838 335,877 398,906C461,935 529,949 604,949C673,949 734,934 785,905C836,875 878,831 910,774C911,799 912,822 913,845C913,867 913,887 913,904C913,1036 890,1136 844,1204C798,1271 734,1305 651,1305C623,1305 597,1302 574,1295C550,1288 529,1281 510,1273C491,1264 475,1257 461,1250C447,1243 436,1240 427,1240C420,1240 413,1242 407,1246C400,1250 393,1258 386,1270M506,127C550,127 592,136 632,155C671,173 707,201 739,238C771,275 799,322 823,379C846,436 865,502 878,579C871,608 862,637 849,665C836,692 820,717 799,738C778,759 754,776 725,789C696,802 662,808 623,808C567,808 517,798 474,777C431,756 394,728 365,692C336,655 314,612 299,563C284,513 276,459 276,401C276,358 281,319 292,285C303,251 318,222 338,199C358,176 382,158 411,146C439,133 471,127 506,127z" unicode="∂" id="glyph2906"></glyph><glyph d="M608,1433l175,0l595,-1433l-1364,0M273,156l845,0l-384,959C728,1130 722,1148 715,1167C708,1186 702,1207 696,1230C690,1207 684,1186 678,1167C671,1147 665,1129 659,1114z" unicode="∆" id="glyph2908"></glyph><glyph d="M1305,1433l0,-153l-187,0l0,-1623l-184,0l0,1623l-501,0l0,-1623l-184,0l0,1623l-187,0l0,153z" unicode="∏" id="glyph2910"></glyph><glyph d="M84,1433l1199,0l0,-153l-923,0l573,-709l0,-52l-573,-709l923,0l0,-153l-1199,0l0,65C84,-269 86,-259 89,-249C92,-240 96,-231 103,-223l629,770l-629,765C96,1321 91,1330 88,1340C85,1349 84,1359 84,1368z" unicode="∑" id="glyph2912"></glyph><glyph d="M148,739l860,0l0,-135l-860,0z" unicode="−" id="glyph2914"></glyph><glyph d="M286,663l-171,0C96,663 80,669 67,680C53,691 46,710 46,737l0,57l335,0C396,794 408,790 417,783C426,776 433,767 436,757l150,-411C594,325 600,303 604,280C608,257 611,235 614,212C617,230 621,248 625,267C628,286 633,305 639,324l432,1351C1074,1686 1081,1695 1090,1702C1099,1709 1111,1712 1124,1712l115,0l-554,-1712l-149,0z" unicode="√" id="glyph2916"></glyph><glyph d="M1002,254C965,254 931,260 901,271C870,282 842,298 817,318C791,337 767,360 746,385C724,410 704,437 685,465C666,437 645,410 624,385C602,360 578,337 553,318C528,298 500,282 469,271C438,260 405,254 368,254C327,254 287,262 250,278C212,294 179,317 151,347C122,376 100,412 83,453C66,494 58,540 58,591C58,642 66,688 83,729C100,770 122,806 151,835C179,864 212,887 250,904C287,920 327,928 368,928C405,928 438,922 469,911C500,900 528,884 553,865C578,845 602,822 624,797C645,772 666,745 685,717C704,745 724,772 746,797C767,822 791,845 817,865C842,884 870,900 901,911C931,922 965,928 1002,928C1043,928 1083,920 1120,904C1157,887 1190,864 1219,835C1248,806 1270,770 1287,729C1304,688 1312,642 1312,591C1312,540 1304,494 1287,453C1270,412 1248,376 1219,347C1190,317 1157,294 1120,278C1083,262 1043,254 1002,254M375,400C399,400 421,405 442,415C463,425 482,439 501,457C519,474 536,495 553,518C570,541 586,565 603,591C586,617 570,642 553,665C536,688 519,708 501,725C482,742 463,756 442,767C421,777 399,782 375,782C351,782 329,778 308,770C287,762 268,750 252,735C236,719 223,699 214,675C205,651 200,623 200,591C200,559 205,531 214,507C223,483 236,463 252,448C268,432 287,420 308,412C329,404 351,400 375,400M995,400C1019,400 1042,404 1063,412C1084,420 1102,432 1118,448C1133,463 1146,483 1155,507C1164,531 1169,559 1169,591C1169,623 1164,651 1155,675C1146,699 1133,719 1118,735C1102,750 1084,762 1063,770C1042,778 1019,782 995,782C971,782 949,777 928,767C907,756 888,742 869,725C850,708 833,688 816,665C799,642 783,617 766,591C783,565 799,541 816,518C833,495 850,474 869,457C888,439 907,425 928,415C949,405 971,400 995,400z" unicode="∞" id="glyph2918"></glyph><glyph d="M374,1091C388,1207 425,1296 485,1357C545,1418 624,1449 721,1449C746,1449 771,1447 794,1442C817,1437 839,1430 860,1419l-8,-86C851,1327 849,1322 846,1317C843,1312 839,1308 833,1305C827,1302 819,1299 809,1298C799,1296 786,1295 770,1295C703,1295 652,1277 615,1241C578,1204 554,1147 544,1068l-130,-1030C405,-30 390,-88 369,-137C347,-186 320,-226 287,-257C254,-289 216,-312 173,-327C130,-342 83,-350 33,-350C10,-350 -14,-348 -39,-343C-64,-339 -86,-332 -106,-321l10,76C-94,-237 -91,-231 -88,-226C-85,-222 -81,-219 -74,-217C-67,-215 -59,-214 -48,-213C-37,-213 -24,-213 -7,-213C32,-213 66,-208 95,-199C124,-190 148,-176 169,-156C189,-137 205,-111 218,-80C230,-49 239,-12 244,32z" unicode="∫" id="glyph2920"></glyph><glyph d="M787,858C806,858 825,860 843,865C861,870 878,876 893,883C908,890 922,897 933,905C944,913 953,921 959,928l25,-114C961,783 930,759 893,744C856,729 817,721 776,721C741,721 707,727 673,738C638,749 604,761 571,774C537,787 504,800 473,811C441,822 410,827 380,827C360,827 341,825 322,821C303,816 286,811 271,804C256,797 242,789 231,781C220,772 211,764 205,756l-29,109C199,899 230,924 268,941C305,957 346,965 390,965C425,965 460,960 495,949C530,938 564,925 597,912C630,898 663,886 695,875C726,864 757,858 787,858M787,520C806,520 825,522 843,527C861,531 878,537 893,544C908,551 922,558 933,566C944,574 953,582 959,589l25,-113C961,444 930,420 893,405C856,390 817,382 776,382C741,382 707,388 673,399C638,410 604,422 571,436C537,449 504,462 473,473C441,484 410,489 380,489C360,489 341,487 322,482C303,477 286,472 271,465C256,458 242,450 231,442C220,433 211,425 205,417l-29,109C199,560 230,585 268,602C305,618 346,626 390,626C425,626 460,621 495,610C530,599 564,586 597,573C630,560 663,548 695,537C726,526 757,520 787,520z" unicode="≈" id="glyph2922"></glyph><glyph d="M150,909l489,0l114,241l129,0l-114,-241l241,0l0,-135l-304,0l-95,-200l399,0l0,-135l-462,0l-119,-252l-129,0l119,252l-268,0l0,135l331,0l95,200l-426,0z" unicode="≠" id="glyph2924"></glyph><glyph d="M148,791l774,377l0,-122C922,1035 919,1026 913,1017C907,1008 895,999 878,991l-441,-207C406,772 374,762 340,754C357,751 374,747 391,742C408,737 423,731 437,724l441,-209C895,507 906,499 913,490C919,481 922,471 922,460l0,-122l-774,379M148,215l774,0l0,-135l-774,0z" unicode="≤" id="glyph2926"></glyph><glyph d="M1012,791l0,-74l-774,-379l0,122C238,471 241,481 248,490C254,499 265,507 282,515l441,209C750,737 783,747 820,754C802,758 785,762 769,767C752,772 737,777 723,784l-441,207C265,998 253,1007 247,1016C241,1025 238,1035 238,1046l0,122M1012,80l-774,0l0,135l774,0z" unicode="≥" id="glyph2928"></glyph><glyph d="M128,701l390,821l124,0l390,-821l-390,-820l-124,0M276,701l276,-581C557,105 563,91 568,78C573,65 577,53 580,41C583,53 587,65 592,78C597,91 602,105 608,120l280,581l-280,582C596,1312 587,1338 580,1361C577,1349 573,1337 568,1324C563,1311 557,1298 552,1283z" unicode="◊" id="glyph2930"></glyph><glyph d="M-2,1473l4,0l0,-1816l-4,0z" unicode="♩" id="glyph2932"></glyph><glyph d="M186,0l0,861l-112,13C60,877 49,883 40,890C31,897 26,907 26,920l0,73l160,0l0,56C186,1111 196,1168 215,1220C234,1271 263,1316 302,1353C341,1390 389,1419 447,1440C504,1461 571,1471 648,1471C673,1471 699,1469 726,1466C752,1463 775,1458 794,1451l-6,-93C787,1349 783,1344 776,1342C769,1339 760,1338 747,1338C740,1338 732,1338 724,1339C716,1339 707,1339 697,1339C579,1339 493,1315 440,1266C386,1217 359,1143 359,1044l0,-51l612,0l0,-993l-178,0l0,864l-428,0l0,-864z" unicode="ﬁ" id="glyph2934"></glyph><glyph d="M186,0l0,861l-112,13C60,877 49,883 40,890C31,897 26,907 26,920l0,73l160,0l0,54C186,1103 195,1156 212,1207C229,1257 255,1301 290,1338C325,1375 368,1405 420,1427C472,1449 533,1460 602,1460C657,1460 711,1458 762,1454C813,1449 862,1447 910,1447l100,0l0,-1447l-178,0l0,1322C796,1323 760,1325 724,1327C687,1329 656,1330 629,1330C542,1330 476,1305 429,1256C382,1206 359,1136 359,1047l0,-54l264,0l0,-129l-258,0l0,-864z" unicode="ﬂ" id="glyph2936"></glyph></font>
</defs>
</svg>
